Top Gear – The Worst Car in The History of The World (2012)

Ashampoo_Snap_2014_08_03_13h21m55s_009.j

Top_Gear_The_Worst_Car_in_The_History_of

http://www.imdb.com/title/tt2540072/

Format/Info                              : Audio Video Interleave
File size                                : 1.15 GiB
Duration                                 : 1h 13mn
Overall bit rate                         : 2 245 Kbps

Video
ID                                       : 0
Format                                   : MPEG-4 Visual
Format profile                           : Advanced Simple@L5
Format settings, BVOP                    : 2
Format settings, QPel                    : No
Format settings, GMC                     : No warppoints
Format settings, Matrix                  : Default (H.263)
Codec ID                                 : XVID
Codec ID/Hint                            : XviD
Duration                                 : 1h 13mn
Bit rate                                 : 1 597 Kbps
Width                                    : 720 pixels
Height                                   : 400 pixels
Display aspect ratio                     : 16:9
Frame rate                               : 25.000 fps
Color space                              : YUV
Chroma subsampling                       : 4:2:0
Bit depth                                : 8 bits
Scan type                                : Progressive
Compression mode                         : Lossy
Bits/(Pixel*Frame)                       : 0.222
Stream size                              : 838 MiB (71%)
Writing library                          : XviD 1.2.1 (UTC 2008-12-04)

Audio
ID                                       : 1
Format                                   : AC-3
Format/Info                              : Audio Coding 3
Mode extension                           : CM (complete main)
Format settings, Endianness              : Big
Codec ID                                 : 2000
Duration                                 : 1h 13mn
Bit rate mode                            : Constant
Bit rate                                 : 640 Kbps
Channel(s)                               : 2 channels
Channel positions                        : Front: L R
Sampling rate                            : 48.0 KHz
Bit depth                                : 16 bits
Compression mode                         : Lossy
Stream size                              : 336 MiB (29%)
Alignment                                : Aligned on interleaves
Interleave, duration                     : 64 ms (1.60 video frames)
Interleave, preload duration             : 192 ms
Title                                    : T2_Audio – English

cast

jeremy clarkson
the other scruffy haired coont
loads of extras
mechanics etc
No hairdressers though

plot

Jeremy clarkson and that other scruffy haired tosser drive around Uk looking for best
sheep to abuse , a must for Xmas and all top queer fans

https://www.inclouddrive.com/file/GoWHyQUkh7yUMLNySSkQwA/TopG.rar

 







Share this