Título original
Omen III: The Final Conflict
Año
1981
Duración
108 min.
País
Estados Unidos Estados Unidos
Director
Graham Baker
Guión
Andrew Birkin (Personajes: David Seltzer)
Música
Jerry Goldsmith
Fotografía
Phil Meheux, Robert Paynter
Reparto
Sam Neill, Rossano Brazzi, Don Gordon, Lisa Harrow, Barnaby Holm, Mason Adams, Robert Arden
Productora
20th Century Fox
Género
Terror | Secuela


Damien Thorn (Sam Neill), de 32 años, es un ser cruel, frío y calculador que ha sido engendrado por el diablo y cuyo único objetivo es dominar el mundo. Con tal de conseguir sus propósitos está dispuesto a matara todo el que se cruce en su camino. Sólo un abnegado sacerdote (Brazzi), cuya misión es destruir al Anticristo y que tiene en su poder las siete dagas sagradas de Megiddo, se interpone entre Damien y su deseo de sembrar el caos y la destrucción.

Spoiler

Complete name : La.Profecia 3
Format : Matroska
Format version : Version 2
File size : 3.85 GiB
Duration : 1h 48mn
Overall bit rate : 5 087 Kbps
Movie name : La.Profecia.2.La.Maldicion.De.Damien.MICROHD.1080p .DTS.DTS-HD.DUAL.Bluray.1978.[TRCKHD]
Encoded date : UTC 2014-11-12 18:31:17
Writing application : mkvmerge v5.8.0 (‘No Sleep / Pillow’) built on Sep 2 2012 15:37:04
Writing library : libebml v1.2.3 + libmatroska v1.3.0

Video
ID : 1
Format : AVC
Format/Info : Advanced Video Codec
Format profile : Main@L4.0
Format settings, CABAC : Yes
Format settings, ReFrames : 1 frame
Muxing mode : Header stripping
Codec ID : V_MPEG4/ISO/AVC
Duration : 1h 48mn
Bit rate : 4 164 Kbps
Width : 1 920 pixels
Height : 808 pixels
Display aspect ratio : 2.40:1
Frame rate mode : Constant
Frame rate : 23.976 fps
Color space : YUV
Chroma subsampling : 4:2:0
Bit depth : 8 bits
Scan type : Progressive
Bits/(Pixel*Frame) : 0.112
Stream size : 3.09 GiB (80%)
Writing library : x264 core 129
Encoding settings : cabac=1 / ref=1 / deblock=1:0:0 / analyse=0x1:0x131 / me=dia / subme=2 / psy=1 / psy_rd=1.00:0.00 / mixed_ref=0 / me_range=16 / chroma_me=1 / trellis=0 / 8x8dct=0 / cqm=0 / deadzone=21,11 / fast_pskip=1 / chroma_qp_offset=0 / threads=4 / lookahead_threads=1 / sliced_threads=0 / nr=0 / decimate=1 / interlaced=0 / bluray_compat=0 / constrained_intra=0 / bframes=0 / weightp=2 / keyint=250 / keyint_min=25 / scenecut=40 / intra_refresh=0 / rc_lookahead=40 / rc=abr / mbtree=1 / bitrate=4164 / ratetol=1.0 / qcomp=0.60 / qpmin=10 / qpmax=51 / qpstep=4 / ip_ratio=1.41 / aq=1:1.00
Default : Yes
Forced : No

Audio #1
ID : 2
Format : AC-3
Format/Info : Audio Coding 3
Mode extension : CM (complete main)
Format settings, Endianness : Big
Muxing mode : Header stripping
Codec ID : A_AC3
Duration : 1h 48mn
Bit rate mode : Constant
Bit rate : 128 Kbps
Channel(s) : 2 channels
Channel positions : Front: L R
Sampling rate : 48.0 KHz
Bit depth : 16 bits
Compression mode : Lossy
Stream size : 99.2 MiB (3%)
Default : Yes
Forced : No

Audio #2
ID : 3
Format : DTS
Format/Info : Digital Theater Systems
Mode : 16
Format settings, Endianness : Big
Muxing mode : Header stripping
Codec ID : A_DTS
Duration : 1h 48mn
Bit rate mode : Constant
Bit rate : 768 Kbps
Channel(s) : 6 channels
Channel positions : Front: L C R, Side: L R, LFE
Sampling rate : 48.0 KHz
Bit depth : 24 bits
Compression mode : Lossy
Stream size : 595 MiB (15%)
Default : No
Forced : No

Text #1
ID : 4
Format : PGS
Muxing mode : zlib
Codec ID : S_HDMV/PGS
Codec ID/Info : The same subtitle format used on BDs/HD-DVDs
Default : Yes
Forced : No

Text #2
ID : 5
Format : PGS
Muxing mode : zlib
Codec ID : S_HDMV/PGS
Codec ID/Info : The same subtitle format used on BDs/HD-DVDs
Default : No
Forced : No

Text #3
ID : 6
Format : PGS
Muxing mode : zlib
Codec ID : S_HDMV/PGS
Codec ID/Info : The same subtitle format used on BDs/HD-DVDs
Default : No
Forced : No

Titulo: La Profecia 3
Calidad de Video: Bdrip 1920 x 808
Calidad de Audio: Castellano / Ingles
Subtitulos: Español / Ingles
Tamaño: 3,85 GiB

Descarga:
07 RAR de 500Mb + 1 de 327MB + 4RAR.REV
Comprimido con winrar 5










Spoiler

Si algun servidor falta alguna parte ,bajen de otro.

Código:

La.Profe.ci.a.3.MICHD.part1.rar
La.Profe.ci.a.3.MICHD.part1.rev
La.Profe.ci.a.3.MICHD.part2.rar
La.Profe.ci.a.3.MICHD.part2.rev
La.Profe.ci.a.3.MICHD.part3.rar
La.Profe.ci.a.3.MICHD.part3.rev
La.Profe.ci.a.3.MICHD.part4.rar
La.Profe.ci.a.3.MICHD.part4.rev
La.Profe.ci.a.3.MICHD.part5.rar
La.Profe.ci.a.3.MICHD.part6.rar
La.Profe.ci.a.3.MICHD.part7.rar
La.Profe.ci.a.3.MICHD.part8.rar

Código:

fB5wXDU8HNxD
cHzPT5TqM8WV
hYMYVmQnJZbn
W59XgkY3sj5N
pT9C66Y6wdWG
y4PSnmQdCYw7
yb4kWSKYRkfT
RGw8mfM25unY
emEuxkt5qRmK
GNpaG2TJfznt
PCMfPRgKYxXM
9wQqPEWcTBGj

Código:

apecnx1s

Código:

http://letitbit.net/download/78013.7b2ad45a0858ec6bfa3befab84fa/La.Profe.ci.a.3.MICHD.part7.rar.html
http://letitbit.net/download/80276.8fe65130761c3116fbe6bb1e9022/La.Profe.ci.a.3.MICHD.part8.rar.html
http://letitbit.net/download/48361.41fe3e32ce7637c0ef4fd6668a3f/La.Profe.ci.a.3.MICHD.part5.rar.html
http://letitbit.net/download/01829.01f7dc594096aaae6925e7841cf8/La.Profe.ci.a.3.MICHD.part6.rar.html
http://letitbit.net/download/30951.3d4645ac281227dbae745f702250/La.Profe.ci.a.3.MICHD.part3.rev.html
http://letitbit.net/download/81884.8c92b79545b832f83d1870e07ae1/La.Profe.ci.a.3.MICHD.part3.rar.html
http://letitbit.net/download/88041.84372af2b362ea2eddcc5e3ee581/La.Profe.ci.a.3.MICHD.part2.rev.html
http://letitbit.net/download/40023.46228b5fb7cecdc2d796da5c430e/La.Profe.ci.a.3.MICHD.part2.rar.html
http://letitbit.net/download/82785.80af788a98074cb992298b66f144/La.Profe.ci.a.3.MICHD.part1.rev.html
http://letitbit.net/download/46700.4c174515f9c28dfb849be863e372/La.Profe.ci.a.3.MICHD.part1.rar.html

Código:

#!w98DCYDS!xy40Uf4J6JGLiMvumJztF93wuxlBHtF7vGbf53dEjos
#!UhN3yQrD!LJl6Mam6arX7h9Sg0ZI70I1cX30n3wlRXy-boo-21Cw
#!Q9dEFRRa!cl1BMy3pV1207fBcxkSB2nhU_0saj3MmBB24SY2KrAg
#!ElUQTRKD!BJWxHmObVt4tYbe5ilVlmGtL5RN2JlsAkAOOeUF24No
#!kwNlnaBS!6qHczw0sbEUOSkl3iXqTs3Tzx4O0_oawcVx53unltE4
#!MxEAhAjD!_1Zbr7svTqtdlsvY09PnX7FcH_83IqYnw9hIFBdzU-w
#!N0lFGLiQ!Kggkwmo_cR39CepI09zH23THkK8cQbBAUPJIKSk878E
#!h5VikQLC!6ouy4YrhXQJ77rcd1Mp59vWistnBpUxNDE9mP4w4n8c
#!1lcwHLJY!ObV3yHz14wIiV5V0JQZoiSONrSyXH5FCy2a9ZRtJcJI
#!4k8lCbbJ!eU4Em2tm2ugUVKRphbW3oYi6-9va9MoVR7RI68IYurY
#!k4t3lTKZ!7ETRClvIhsMaUjOnETwhilSS2ewX5wlRHZ2_TRze-Ks
#!8skQkZAZ!OEhQu4k2jQhstljoVU6xiubvfM2U94SY5PvNQnGmpsM

Código:

https://1fichier.com/?wvst6bzhi9
https://1fichier.com/?a7xmbodd5h
https://1fichier.com/?emfuwmvz7u
https://1fichier.com/?jv9vp3b114
https://1fichier.com/?3uvvhufpza
https://1fichier.com/?zmo06tns8i
https://1fichier.com/?0zob083qvx
https://1fichier.com/?277m54f9t0
https://1fichier.com/?zcywmmy1pk
https://1fichier.com/?m737zdgfd9
https://1fichier.com/?w42kuxoz2r
https://1fichier.com/?et8zdrgjfp

Código:

La.Profe.ci.a.3.MICHD.part1.rar
La.Profe.ci.a.3.MICHD.part1.rev
La.Profe.ci.a.3.MICHD.part2.rar
La.Profe.ci.a.3.MICHD.part2.rev
La.Profe.ci.a.3.MICHD.part3.rar
La.Profe.ci.a.3.MICHD.part3.rev
La.Profe.ci.a.3.MICHD.part4.rar
La.Profe.ci.a.3.MICHD.part4.rev
La.Profe.ci.a.3.MICHD.part6.rar
La.Profe.ci.a.3.MICHD.part5.rar
La.Profe.ci.a.3.MICHD.part8.rar
La.Profe.ci.a.3.MICHD.part7.rar







Share this