I.Origins.2014.BluRay.REMUX.1080p.AVC.DTS-HD.MA.7.1-AdiT

Code:

http://www.imdb.com/title/tt2884206/

Code:

Format                      : Matroska
Format version              : Version 4 / Version 2
File size                  : 26.6 GiB
Duration                    : 1h 47mn
Overall bit rate mode      : Variable
Overall bit rate            : 35.4 Mbps
Movie name                  : I.Origins.2014.BluRay.REMUX.1080p.AVC.DTS-HD.MA.7.1-AdiT
Encoded date                : UTC 2014-12-18 09:25:46
Writing application        : mkvmerge v7.4.0 (‘Circles’) 64bit built on Dec 12 2014 12:19:56
Writing library            : libebml v1.3.0 + libmatroska v1.4.1

Video
ID                          : 1
Format                      : AVC
Format/Info                : Advanced Video Codec
Format profile              : High@L4.1
Format settings, CABAC      : Yes
Format settings, ReFrames  : 4 frames
Codec ID                    : V_MPEG4/ISO/AVC
Duration                    : 1h 47mn
Bit rate mode              : Variable
Maximum bit rate            : 32.0 Mbps
Width                      : 1 920 pixels
Height                      : 1 080 pixels
Display aspect ratio        : 16:9
Frame rate mode            : Constant
Frame rate                  : 23.976 fps
Color space                : YUV
Chroma subsampling          : 4:2:0
Bit depth                  : 8 bits
Scan type                  : Progressive
Language                    : English
Default                    : Yes
Forced                      : No

Audio #1
ID                          : 2
Format                      : DTS
Format/Info                : Digital Theater Systems
Format profile              : MA / Core
Mode                        : 16
Format settings, Endianness : Big
Codec ID                    : A_DTS
Duration                    : 1h 47mn
Bit rate mode              : Variable
Bit rate                    : Unknown / 1 509 Kbps
Channel(s)                  : 8 channels / 6 channels
Channel positions          : Front: L C R, Side: L R, Back: L R, LFE / Front: L C R, Side: L R, LFE
Sampling rate              : 48.0 KHz
Bit depth                  : 24 bits
Compression mode            : Lossless / Lossy
Language                    : English
Default                    : Yes
Forced                      : No

Audio #2
ID                          : 3
Format                      : AC-3
Format/Info                : Audio Coding 3
Mode extension              : CM (complete main)
Format settings, Endianness : Big
Codec ID                    : A_AC3
Duration                    : 1h 47mn
Bit rate mode              : Constant
Bit rate                    : 448 Kbps
Channel(s)                  : 6 channels
Channel positions          : Front: L C R, Side: L R, LFE
Sampling rate              : 48.0 KHz
Bit depth                  : 16 bits
Compression mode            : Lossy
Stream size                : 345 MiB (1%)
Language                    : English
Default                    : No
Forced                      : No

Audio #3
ID                          : 4
Format                      : AC-3
Format/Info                : Audio Coding 3
Mode extension              : CM (complete main)
Format settings, Endianness : Big
Codec ID                    : A_AC3
Duration                    : 1h 47mn
Bit rate mode              : Constant
Bit rate                    : 448 Kbps
Channel(s)                  : 6 channels
Channel positions          : Front: L C R, Side: L R, LFE
Sampling rate              : 48.0 KHz
Bit depth                  : 16 bits
Compression mode            : Lossy
Stream size                : 345 MiB (1%)
Language                    : Spanish
Default                    : No
Forced                      : No

Text #1
ID                          : 5
Format                      : PGS
Codec ID                    : S_HDMV/PGS
Codec ID/Info              : The same subtitle format used on BDs/HD-DVDs
Language                    : English
Default                    : Yes
Forced                      : No

Text #2
ID                          : 6
Format                      : PGS
Codec ID                    : S_HDMV/PGS
Codec ID/Info              : The same subtitle format used on BDs/HD-DVDs
Language                    : Spanish
Default                    : No
Forced                      : No

Text #3
ID                          : 7
Format                      : PGS
Codec ID                    : S_HDMV/PGS
Codec ID/Info              : The same subtitle format used on BDs/HD-DVDs
Language                    : French
Default                    : No
Forced                      : No

Menu
00:00:00.000                : en:Chapter 1
00:02:40.618                : en:Chapter 2
00:05:32.707                : en:Chapter 3
00:07:23.693                : en:Chapter 4
00:12:35.504                : en:Chapter 5
00:13:52.206                : en:Chapter 6
00:16:43.252                : en:Chapter 7
00:19:00.973                : en:Chapter 8
00:21:32.666                : en:Chapter 9
00:25:36.535                : en:Chapter 10
00:29:38.026                : en:Chapter 11
00:32:51.219                : en:Chapter 12
00:36:25.224                : en:Chapter 13
00:42:30.130                : en:Chapter 14
00:46:37.920                : en:Chapter 15
00:50:51.048                : en:Chapter 16
00:54:16.294                : en:Chapter 17
00:58:26.336                : en:Chapter 18
01:02:26.367                : en:Chapter 19
01:05:25.755                : en:Chapter 20
01:07:49.356                : en:Chapter 21
01:12:53.327                : en:Chapter 22
01:16:32.087                : en:Chapter 23
01:18:40.006                : en:Chapter 24
01:21:18.915                : en:Chapter 25
01:24:00.243                : en:Chapter 26
01:26:06.703                : en:Chapter 27
01:27:52.350                : en:Chapter 28
01:32:45.518                : en:Chapter 29
01:37:39.603                : en:Chapter 30
01:39:03.395                : en:Chapter 31
01:42:23.345                : en:Chapter 32


Links r Interchangable

Click on FileParadox logo To Buy Premium Acc!
.:: Hidden Content: Check out the thread to find out whether you can access it! ::.


Click on Files2Share logo To Buy Premium Acc!
.:: Hidden Content: Check out the thread to find out whether you can access it! ::.

Code:

Pass: adit-hd.com






Share this