Old School 2003 1080p BluRay DD5.1 x264-HANGOVER

Code:

http://www.imdb.com/title/tt0302886/?ref_=nv_sr_1

Code:

Format version                          : Version 1
File size                                : 7.95 GiB
Duration                                : 1h 31mn
Overall bit rate                        : 12.4 Mbps
Encoded date                            : UTC 2008-12-10 14:30:00
Writing application                      : mkvmerge v2.4.0 (‘Fumbling Towards Ecstasy’) built on Oct 11 2008 20:13:15
Writing library                          : libebml v0.7.7 + libmatroska v0.8.1

Video
ID                                      : 1
Format                                  : AVC
Format/Info                              : Advanced Video Codec
Format profile                          : High@L4.0
Format settings, CABAC                  : Yes
Format settings, ReFrames                : 5 frames
Codec ID                                : V_MPEG4/ISO/AVC
Duration                                : 1h 31mn
Bit rate                                : 11.7 Mbps
Width                                    : 1 920 pixels
Height                                  : 816 pixels
Display aspect ratio                    : 2.35:1
Frame rate mode                          : Constant
Frame rate                              : 23.976 fps
Color space                              : YUV
Chroma subsampling                      : 4:2:0
Bit depth                                : 8 bits
Scan type                                : Progressive
Bits/(Pixel*Frame)                      : 0.313
Stream size                              : 7.38 GiB (93%)
Writing library                          : x264 core 65 r1046M 71d34b4
Encoding settings                        : cabac=1 / ref=5 / deblock=1:-1:-1 / analyse=0x3:0x113 / me=umh / subme=7 / psy_rd=1.0:0.0 / mixed_ref=1 / me_range=16 / chroma_me=1 / trellis=1 / 8x8dct=1 / cqm=0 / deadzone=21,11 / chroma_qp_offset=-2 / threads=3 / nr=0 / decimate=1 / mbaff=0 / bframes=3 / b_pyramid=1 / b_adapt=1 / b_bias=0 / direct=3 / wpredb=1 / keyint=250 / keyint_min=25 / scenecut=40(pre) / rc=2pass / bitrate=11744 / ratetol=1.0 / qcomp=0.60 / qpmin=10 / qpmax=51 / qpstep=4 / cplxblur=20.0 / qblur=0.5 / ip_ratio=1.40 / pb_ratio=1.30 / aq=1:1.00
Language                                : English
Default                                  : Yes
Forced                                  : No

Audio
ID                                      : 2
Format                                  : AC-3
Format/Info                              : Audio Coding 3
Mode extension                          : CM (complete main)
Format settings, Endianness              : Big
Codec ID                                : A_AC3
Duration                                : 1h 31mn
Bit rate mode                            : Constant
Bit rate                                : 640 Kbps
Channel(s)                              : 6 channels
Channel positions                        : Front: L C R, Side: L R, LFE
Sampling rate                            : 48.0 KHz
Bit depth                                : 16 bits
Compression mode                        : Lossy
Stream size                              : 420 MiB (5%)
Language                                : English
Default                                  : Yes
Forced                                  : No

Code:

English

1fichier Uploadable Uploaded Uptobox Uplea





Code:

https://safelinking.net/p/4d6a0633f9

No Password

PM me here if links are down.

Enjoy

http://x264-bb.com/movies-scene-rele…ml#post2749235






Share this