The Sublime and the Beautiful 2014 720p WEB-DL DD5 1 H 264-PLAYNOW

Code:

Video
ID                                      : 1
Format                                  : AVC
Format/Info                              : Advanced Video Codec
Format profile                          : High@L3.1
Format settings, CABAC                  : No
Format settings, ReFrames                : 2 frames
Format settings, GOP                    : N=1
Codec ID                                : V_MPEG4/ISO/AVC
Duration                                : 1h 33mn
Bit rate                                : 3 864 Kbps
Width                                    : 1 268 pixels
Height                                  : 720 pixels
Display aspect ratio                    : 16:9
Frame rate mode                          : Constant
Frame rate                              : 23.976 fps
Color space                              : YUV
Chroma subsampling                      : 4:2:0
Bit depth                                : 8 bits
Scan type                                : Progressive
Bits/(Pixel*Frame)                      : 0.177
Stream size                              : 2.52 GiB (89%)
Language                                : English
Default                                  : Yes
Forced                                  : No
Color primaries                          : BT.709
Transfer characteristics                : BT.709
Matrix coefficients                      : BT.709

Audio
ID                                      : 2
Format                                  : AC-3
Format/Info                              : Audio Coding 3
Mode extension                          : CM (complete main)
Format settings, Endianness              : Big
Codec ID                                : A_AC3
Duration                                : 1h 33mn
Bit rate mode                            : Constant
Bit rate                                : 384 Kbps
Channel(s)                              : 6 channels
Channel positions                        : Front: L C R, Side: L R, LFE
Sampling rate                            : 48.0 KHz
Bit depth                                : 16 bits
Compression mode                        : Lossy
Stream size                              : 256 MiB (9%)
Language                                : English

Code:

The.Sublime.and.the.Beautiful.2014.720p.WEB-DL.DD5.1.H.264-PLAYNOW.mkv






Share this