Nymphomaniac_Vol_II.pnginfo.pngimdb.png

http://www.imdb.com/title/tt2382009/

Title: Nymphomaniac: Vol. II (2013)
Genres: Drama
Rating: 6.8 (37001 votes)
Runtime: 123 min
Director: Lars von Trier
Writer: Lars von Trier
Actors: Charlotte Gainsbourg, Stellan Skarsgård, Stacy Martin, Shia LaBeouf
Rated: Not Rated

Description:
Joe continues to tell to Seligman the story of her life. Joe lives with Jerôme and their son Marcel and out of the blue, she loses sexual sensation in intercourse. Joe seeks kinky sex, perversions and sadomasochism expecting to retrieve her sex drive. Jerôme leaves home with Marcel and gives his son to a foster house for adoption. Then Joe is sent to therapy by her gynecologist but she does not admit that she is addicted to sex. Meanwhile Seligman tells Joe that he is virgin and helps her to understand her actions. Joe believes that Seligman is her friend, but is he?

youtube.png

http://youtube.com/watch?v=jY05rcPrAss

General:

Complete name : Nymphomaniac.Vol.II.2013.1Mbps.AAC20.MP4-FASM
IMDB : http://www.imdb.com/title/tt2382009/
Chapters : Yes(Not Named)
Format : MPEG-4
Format profile : Base Media
Codec ID : isom
File size : 1008 MiB
Duration : 2h 3mn
Overall bit rate mode : Variable
Overall bit rate : 1141 Kbps

Video:

Format : AVC
Format/Info : Advanced Video Codec
Format profile : High@L3.1
Format settings, CABAC : Yes
Format settings, ReFrames : 4 frames
Codec ID : avc1
Codec ID/Info : Advanced Video Coding
Duration : 2h 3mn
Bit rate : 1089 Kbps
Maximum bit rate : 4174 Kbps
Width : 1280 pixels
Height : 544 pixels
Display aspect ratio : 2.35:1
Frame rate mode : Constant
Frame rate : 23.976 fps
Color space : YUV
Chroma subsampling : 4:2:0
Bit depth : 8 bits
Scan type : Progressive
Bits/(Pixel*Frame) : 0.065
Stream size : 962 MiB (95%)
Writing library : h264 1Mbps encoder based on QEBSx engine designed for low bitrate streaming purposes ver.1.1 (c)2014 Fachman

Audio:

Format : AAC
Format/Info : Advanced Audio Codec
Format profile : HE-AAC / LC
Codec ID : 40
Duration : 2h 3mn
Bit rate mode : Variable
Bit rate : 48.0 Kbps
Maximum bit rate : 80.7 Kbps
Channel(s) : 2 channels
Channel positions : Front: L R
Sampling rate : 48.0 KHz / 24.0 KHz
Compression mode : Lossy
Stream size : 43.5 MiB (4%)
Language : English

screens.png01.Nymphomaniac.Vol.II.2013.720p.BDRip.102.Nymphomaniac.Vol.II.2013.720p.BDRip.103.Nymphomaniac.Vol.II.2013.720p.BDRip.1image.png
Interchangeable Links | 3% Recovery Record | No Password

http://www.filefactory.com/file/4m9w7003py8h/Nymphomaniac.Vol.II.2013.1Mbps.AAC20.MP4-FASM.rar

http://hugefiles.net/u8sa94wtb8ov

Nymphomaniac.Vol.II.2013.1Mbps.AAC20.MP4-FASM.rar

reply.png







Share this