Eine Mondverfinsterung, unerklärliche Fernsehempfangsstörungen und UFOs, die den Himmel verdunkeln, lassen darauf schließen, daß der Erde die Invasion bevorsteht. In letzter Minute befiehlt der amerikanische Präsident die Evakuierung aller Großstädte, doch da ist es bereits zu spät – die Aliens attackieren ohne Vorwarnung. Am Independence Day rüsten sich die Überlebenden – allen voran der US-Präsident, der Computerspezialist Levinson und der Kampfflieger Hiller – zum Gegenschlag.

Größe: ~ 1851.3 MB

Format: x264-SSD

Laufzeit: ~ 145 Min.

Genre: Action

R E L E A S E i N F O

Code:

Independence.Day.1996.German.AC3.BDRip.x264-Cancer58.mkv
.
Format                                  : Matroska
Format version                          : Version 4 / Version 2
File size                                : 1.81 GiB
Duration                                : 2h 24mn
Overall bit rate                        : 1 788 Kbps
Movie name                              : Cancer58
Encoded date                            : UTC 2015-06-29T11:58:00Z
Writing application                      : mkvmerge v8.0.0 (‘Til The Day That I Die’) 64bit
Writing library                          : Lavf55.12.0
.
Video
ID                                      : 1
Format                                  : AVC
Format/Info                              : Advanced Video Codec
Format profile                          : Main@L4.0
Format settings, CABAC                  : Yes
Format settings, ReFrames                : 4 frames
Codec ID                                : V_MPEG4/ISO/AVC
Duration                                : 2h 24mn
Bit rate                                : 1 350 Kbps
Width                                    : 720 pixels
Height                                  : 306 pixels
Display aspect ratio                    : 2.35:1
Frame rate mode                          : Constant
Frame rate                              : 23.976 fps
Color space                              : YUV
Chroma subsampling                      : 4:2:0
Bit depth                                : 8 bits
Scan type                                : Progressive
Bits/(Pixel*Frame)                      : 0.256
Stream size                              : 1.32 GiB (73%)
Writing library                          : x264 core 146
.
Audio
ID                                      : 2
Format                                  : AC-3
Format/Info                              : Audio Coding 3
Mode extension                          : CM (complete main)
Format settings, Endianness              : Big
Codec ID                                : A_AC3
Duration                                : 2h 24mn
Bit rate mode                            : Constant
Bit rate                                : 448 Kbps
Channel(s)                              : 6 channels
Channel positions                        : Front: L C R, Side: L R, LFE
Sampling rate                            : 48.0 KHz
Bit depth                                : 16 bits
Compression mode                        : Lossy
Delay relative to video                  : -5ms
Stream size                              : 464 MiB (25%)
Title                                    : Surround
Language                                : German
Default                                  : Yes
Forced                                  : No
.
Plot:  http://tinyurl.com/qgx7z8j
.
EOF

250mb Parts | Hoster untereinander kompatibel! | 1x gepackt!

Uploaded.net

Uploaded.net

Share-online.biz

Share-online.biz






Share this