True.Detective.S02.720p.HDTV.x264-0SEC

Zitat:

Genre: Crime – Sprache/n: Englisch – Video: HDTV – Audio: Dolby Digital 5.1 – Codec: MPEG-4 H.264 / AVC

Die 2. Staffel der spektakulären Crimeserie: Ein rätselhaftes Verbrechen verstrickt Colin Farrell, Vince Vaughn und Rachel McAdams in ein mörderisches Netz aus Betrug und Verschwörung.

Episode 01: The Western Book of the Dead
True.Detective.S02E01.720p.HDTV.x264-0SEC

Größe: 1778,07 MB

Uploaded.net

True.Detective.S02E01.720p.HDTV.x264-0SEC

Share-online.biz

True.Detective.S02E01.720p.HDTV.x264-0SEC

NFO

Code:

Release.: True.Detective.S02E02.720p.HDTV.x264-0SEC
Date….: 22-06-2015
Source..: HBO EAST (UNSCRAMBLED)

It means that I’m not the Samaritan. That I’m not the priest, or the Levite. That I am the ill intent… who set upon the traveler on a road that he should not have been on.

General
Unique ID                      : 47877926339568922045223939198689846937 (0x2404F404FF555BE9B423BA25EE05A699)
Complete name                  : true.detective.s02e01.720p.hdtv.x264-0sec.mkv
Format                        : Matroska
Format version                : Version 4 / Version 2
File size                      : 1.68 GiB
Duration                      : 1h 0mn
Overall bit rate              : 3 997 Kbps
Writing application            : Lavf56.37.100
Writing library                : Lavf56.37.100

Video
ID                            : 1
Format                        : AVC
Format/Info                    : Advanced Video Codec
Format profile                : High@L4.1
Format settings, CABAC        : Yes
Format settings, ReFrames      : 5 frames
Codec ID                      : V_MPEG4/ISO/AVC
Duration                      : 1h 0mn
Bit rate                      : 3 533 Kbps
Width                          : 1 280 pixels
Height                        : 720 pixels
Display aspect ratio          : 16:9
Frame rate mode                : Constant
Frame rate                    : 23.976 fps
Color space                    : YUV
Chroma subsampling            : 4:2:0
Bit depth                      : 8 bits
Scan type                      : Progressive
Bits/(Pixel*Frame)            : 0.160
Stream size                    : 1.49 GiB (88%)
Writing library                : x264 core 146 r2538 121396c
Encoding settings              : cabac=1 / ref=5 / deblock=1:0:0 / analyse=0x3:0x113 / me=umh / subme=8 / psy=1 / psy_rd=1.00:0.00 / mixed_ref=1 / me_range=16 / chroma_me=1 / trellis=1 / 8x8dct=1 / cqm=0 / deadzone=21,11 / fast_pskip=1 / chroma_qp_offset=-2 / threads=24 / lookahead_threads=4 / sliced_threads=0 / nr=0 / decimate=1 / interlaced=0 / bluray_compat=0 / constrained_intra=0 / bframes=3 / b_pyramid=2 / b_adapt=2 / b_bias=0 / direct=3 / weightb=1 / open_gop=0 / weightp=2 / keyint=250 / keyint_min=23 / scenecut=40 / intra_refresh=0 / rc_lookahead=50 / rc=crf / mbtree=1 / crf=18.0 / qcomp=0.60 / qpmin=0 / qpmax=69 / qpstep=4 / ip_ratio=1.40 / aq=1:1.00
Language                      : English
Default                        : Yes
Forced                        : No
Matrix coefficients            : BT.709

Audio
ID                            : 2
Format                        : AC-3
Format/Info                    : Audio Coding 3
Mode extension                : CM (complete main)
Format settings, Endianness    : Big
Codec ID                      : A_AC3
Duration                      : 1h 0mn
Bit rate mode                  : Constant
Bit rate                      : 384 Kbps
Channel(s)                    : 6 channels
Channel positions              : Front: L C R, Side: L R, LFE
Sampling rate                  : 48.0 KHz
Bit depth                      : 16 bits
Compression mode              : Lossy
Stream size                    : 165 MiB (10%)
Default                        : No
Forced                        : No






Share this