UB40 – Promises And Lies (1993)

[Infos]:

Release: 1993
Tracks: 11
Format: FLAC
Parts: 2
Größe: 385 MB
Hoster: Share-Online, Uploaded
Enthalten: CUE, LOG, Cover (600dpi)

Tracklist:

01. C’est La Vie [0:04:31.35]
02. Desert Sand [0:04:48.22]
03. Promises And Lies [0:03:38.50]
04. Bring Me Your Cup [0:05:41.30]
05. Higher Ground [0:04:21.18]
06. Reggae Music [0:04:06.32]
07. Can’t Help Falling In Love [0:03:27.33]
08. Now And Then [0:03:40.40]
09. Things Ain’t Like They Used To Be [0:04:01.52]
10. It’s A Long Long Way [0:04:29.48]
11. Sorry [0:04:27.15]

Log:

Exact Audio Copy V1.0 beta 3 from 29. August 2011

EAC extraction logfile from 25. June 2015, 18:35

UB40 / Promises And Lies

Used drive : MATSHITADVD-RAM UJ8A0AS Adapter: 0 ID: 1

Read mode : Secure
Utilize accurate stream : Yes
Defeat audio cache : Yes
Make use of C2 pointers : No

Read offset correction : 102
Overread into Lead-In and Lead-Out : No
Fill up missing offset samples with silence : Yes
Delete leading and trailing silent blocks : No
Null samples used in CRC calculations : Yes
Used interface : Native Win32 interface for Win NT & 2000
Gap handling : Appended to previous track

Used output format : User Defined Encoder
Selected bitrate : 1024 kBit/s
Quality : High
Add ID3 tag : No
Command line compressor : C:\Program Files (x86)\Exact Audio Copy\FLAC\FLAC.EXE
Additional command line options : -6 -V -T “ARTIST=%artist%” -T “TITLE=%title%” -T “ALBUM=%albumtitle%” -T “DATE=%year%” -T “TRACKNUMBER=%tracknr%” -T “GENRE=%genre%” -T “COMMENT=%comment%” -T “BAND=%albuminterpret%” -T “ALBUMARTIST=%albuminterpret%” -T “COMPOSER=%composer%” %haslyrics%–tag-from-file=LYRICS=”%lyricsfile%”%haslyrics% -T “DISCNUMBER=%cdnumber%” -T “TOTALDISCS=%totalcds%” -T “TOTALTRACKS=%numtracks%” %hascover%–picture=”%coverfile%”%hascover% %source% -o %dest%

TOC of the extracted CD

Track | Start | Length | Start sector | End sector
———————————————————
1 | 0:00.00 | 4:31.35 | 0 | 20359
2 | 4:31.35 | 4:48.22 | 20360 | 41981
3 | 9:19.57 | 3:38.50 | 41982 | 58381
4 | 12:58.32 | 5:41.30 | 58382 | 83986
5 | 18:39.62 | 4:21.18 | 83987 | 103579
6 | 23:01.05 | 4:06.32 | 103580 | 122061
7 | 27:07.37 | 3:27.33 | 122062 | 137619
8 | 30:34.70 | 3:40.40 | 137620 | 154159
9 | 34:15.35 | 4:01.52 | 154160 | 172286
10 | 38:17.12 | 4:29.48 | 172287 | 192509
11 | 42:46.60 | 4:27.15 | 192510 | 212549

Track 1

Filename C:\HIFI\UB40 – Promises And Lies (1993) FLAC1 C’est La Vie.wav

Pre-gap length 0:00:02.00

Peak level 99.2 %
Extraction speed 1.2 X
Track quality 100.0 %
Copy CRC D09EE4ED
Accurately ripped (confidence 81) [59AFD74D] (AR v2)
Copy OK

Track 2

Filename C:\HIFI\UB40 – Promises And Lies (1993) FLAC2 Desert Sand.wav

Pre-gap length 0:00:01.30

Peak level 99.2 %
Extraction speed 1.3 X
Track quality 100.0 %
Copy CRC 84B361A4
Accurately ripped (confidence 81) [2620FE59] (AR v2)
Copy OK

Track 3

Filename C:\HIFI\UB40 – Promises And Lies (1993) FLAC3 Promises And Lies.wav

Pre-gap length 0:00:00.02

Peak level 97.7 %
Extraction speed 1.4 X
Track quality 100.0 %
Copy CRC 991AEFAC
Accurately ripped (confidence 81) [5A1EE436] (AR v2)
Copy OK

Track 4

Filename C:\HIFI\UB40 – Promises And Lies (1993) FLAC4 Bring Me Your Cup.wav

Pre-gap length 0:00:00.02

Peak level 99.2 %
Extraction speed 1.6 X
Track quality 100.0 %
Copy CRC 2C4FED4D
Accurately ripped (confidence 80) [D0F33476] (AR v2)
Copy OK

Track 5

Filename C:\HIFI\UB40 – Promises And Lies (1993) FLAC5 Higher Ground.wav

Pre-gap length 0:00:00.02

Peak level 99.2 %
Extraction speed 1.5 X
Track quality 99.9 %
Copy CRC F6DFC60D
Accurately ripped (confidence 81) [8C992350] (AR v2)
Copy OK

Track 6

Filename C:\HIFI\UB40 – Promises And Lies (1993) FLAC6 Reggae Music.wav

Pre-gap length 0:00:01.10

Peak level 99.2 %
Extraction speed 1.8 X
Track quality 100.0 %
Copy CRC 9A9C6DF2
Accurately ripped (confidence 80) [4080B32F] (AR v2)
Copy OK

Track 7

Filename C:\HIFI\UB40 – Promises And Lies (1993) FLAC7 Can’t Help Falling In Love.wav

Pre-gap length 0:00:02.07

Peak level 99.2 %
Extraction speed 1.8 X
Track quality 100.0 %
Copy CRC 0A48DE6D
Accurately ripped (confidence 80) [71329635] (AR v2)
Copy OK

Track 8

Filename C:\HIFI\UB40 – Promises And Lies (1993) FLAC8 Now And Then.wav

Pre-gap length 0:00:00.03

Peak level 99.2 %
Extraction speed 1.9 X
Track quality 100.0 %
Copy CRC CF9B178C
Accurately ripped (confidence 80) [F02467B1] (AR v2)
Copy OK

Track 9

Filename C:\HIFI\UB40 – Promises And Lies (1993) FLAC9 Things Ain’t Like They Used To Be.wav

Pre-gap length 0:00:00.03

Peak level 99.2 %
Extraction speed 1.8 X
Track quality 99.9 %
Copy CRC 091457E2
Accurately ripped (confidence 81) [0713DCD6] (AR v2)
Copy OK

Track 10

Filename C:\HIFI\UB40 – Promises And Lies (1993) FLAC\10 It’s A Long Long Way.wav

Pre-gap length 0:00:00.02

Peak level 99.2 %
Extraction speed 2.1 X
Track quality 100.0 %
Copy CRC 9D2816E6
Accurately ripped (confidence 77) [9BE380AB] (AR v2)
Copy OK

Track 11

Filename C:\HIFI\UB40 – Promises And Lies (1993) FLAC\11 Sorry.wav

Pre-gap length 0:00:00.03

Peak level 99.2 %
Extraction speed 2.2 X
Track quality 100.0 %
Copy CRC A9C3BD11
Accurately ripped (confidence 78) [86D17049] (AR v2)
Copy OK

All tracks accurately ripped

No errors occurred

End of status report

—- CUETools DB Plugin V2.1.3

[CTDB TOCID: fGQ0i_iYBYuGox0iIOnadZWJGmM-] found, Submit result: fGQ0i_iYBYuGox0iIOnadZWJGmM- has been confirmed
[bd6bf323] (216/221) Accurately ripped
[2e2ae113] (001/221) No match
[099df24d] (001/221) No match
[50512a15] (001/221) No match
[44c680c0] (001/221) No match
[1a16533b] (001/221) No match

==== Log checksum B4494A727708C5000613169689F7993D7722894C8D3AEBD479 B0DDE5515A95A9 ====

Cue:

REM GENRE Pop
REM DATE 1993
REM DISCID 9A0B120B
REM COMMENT “ExactAudioCopy v1.0b3”
PERFORMER “UB40”
TITLE “Promises And Lies”
FILE “01 C’est La Vie.wav” WAVE
TRACK 01 AUDIO
TITLE “C’est La Vie”
PERFORMER “UB40”
INDEX 01 00:00:00
TRACK 02 AUDIO
TITLE “Desert Sand”
PERFORMER “UB40”
INDEX 00 04:30:05
FILE “02 Desert Sand.wav” WAVE
INDEX 01 00:00:00
TRACK 03 AUDIO
TITLE “Promises And Lies”
PERFORMER “UB40”
INDEX 00 04:48:20
FILE “03 Promises And Lies.wav” WAVE
INDEX 01 00:00:00
TRACK 04 AUDIO
TITLE “Bring Me Your Cup”
PERFORMER “UB40”
INDEX 00 03:38:48
FILE “04 Bring Me Your Cup.wav” WAVE
INDEX 01 00:00:00
TRACK 05 AUDIO
TITLE “Higher Ground”
PERFORMER “UB40”
INDEX 00 05:41:28
FILE “05 Higher Ground.wav” WAVE
INDEX 01 00:00:00
TRACK 06 AUDIO
TITLE “Reggae Music”
PERFORMER “UB40”
INDEX 00 04:20:08
FILE “06 Reggae Music.wav” WAVE
INDEX 01 00:00:00
TRACK 07 AUDIO
TITLE “Can’t Help Falling In Love”
PERFORMER “UB40”
INDEX 00 04:04:25
FILE “07 Can’t Help Falling In Love.wav” WAVE
INDEX 01 00:00:00
TRACK 08 AUDIO
TITLE “Now And Then”
PERFORMER “UB40”
INDEX 00 03:27:30
FILE “08 Now And Then.wav” WAVE
INDEX 01 00:00:00
TRACK 09 AUDIO
TITLE “Things Ain’t Like They Used To Be”
PERFORMER “UB40”
INDEX 00 03:40:37
FILE “09 Things Ain’t Like They Used To Be.wav” WAVE
INDEX 01 00:00:00
TRACK 10 AUDIO
TITLE “It’s A Long Long Way”
PERFORMER “UB40”
INDEX 00 04:01:50
FILE “10 It’s A Long Long Way.wav” WAVE
INDEX 01 00:00:00
TRACK 11 AUDIO
TITLE “Sorry”
PERFORMER “UB40”
INDEX 00 04:29:45
FILE “11 Sorry.wav” WAVE
INDEX 01 00:00:00

Download

Passwort:

sampler






Share this