Eine.kleine.Geschichte.ueber.Sex.2002.German.AC3.B DRip.XviD-PS

Investigating Sex
Genre: Drama | Laufzeit: 104 Min. | Sprache/n: GER

Was ist ein perfekter Orgasmus? Verwechseln Männer Liebe mit Sex? Wird der Mensch beim Sex zum Tier? Um diese illustren Fragen dreht sich ein Experiment, zu dem Edgar einige Gäste in ein luxuriöses Schloß eingeladen hat. Ganz sachlich soll die schönste Nebensache der Welt behandelt werden. Als die Assistentinnen Alice und Zoe eintreffen, die das Geschehen protokollieren sollen, gerät das Vorhaben außer Kontrolle. Die beiden gut aussehenden Frauen werden nach kurzer Zeit immer tiefer in die Versuchsreihe hineingezogen, und die Gruppe gerät in einen Sog aus Leidenschaft, Lust und intimer Begierden. Bald fallen auch die letzten Tabus.

NFO:

[NFO]Format : AVI
Format/Info : Audio Video Interleave
File size : 1.23 GiB
Duration : 1h 41mn
Overall bit rate : 1 731 Kbps
Writing application : VirtualDubMod 1.5.10.2 (build 2542/release)
Writing library : VirtualDubMod build 2542/release

Video
ID : 0
Format : MPEG-4 Visual
Format profile : Advanced Simple@L5
Format settings, BVOP : 2
Format settings, QPel : No
Format settings, GMC : No warppoints
Format settings, Matrix : Default (H.263)
Muxing mode : Packed bitstream
Codec ID : XVID
Codec ID/Hint : XviD
Duration : 1h 41mn
Bit rate : 1 337 Kbps
Width : 720 pixels
Height : 304 pixels
Display aspect ratio : 2.35:1
Frame rate : 25.000 fps
Color space : YUV
Chroma subsampling : 4:2:0
Bit depth : 8 bits
Scan type : Progressive
Compression mode : Lossy
Bits/(Pixel*Frame) : 0.244
Stream size : 975 MiB (77%)
Writing library : XviD 64

Audio
ID : 1
Format : AC-3
Format/Info : Audio Coding 3
Mode extension : CM (complete main)
Format settings, Endianness : Big
Codec ID : 2000
Duration : 1h 41mn
Bit rate mode : Constant
Bit rate : 384 Kbps
Channel(s) : 6 channels
Channel positions : Front: L C R, Side: L R, LFE
Sampling rate : 48.0 KHz
Compression mode : Lossy
Stream size : 280 MiB (22%)
Alignment : Split accross interleaves
Interleave, duration : 40 ms (1.00 video frame)
Interleave, preload duratio : 500 ms
[/NFO]

Video Stream: BD-RIP | Audio Stream: Dolby Digital 5.1 | Video Codec: MPEG-4 DivX / Xvid
Hoster: SO, UL | Größe: 1261,97 MB | Parts: 1 | Passwort: gload

Download:
Share-Online.biz

Share-Online.biz

Uploaded.net

Uploaded.net

Stream:

Streamcloud.eu






Share this