.: Avengers Age of Ultron (2015) HDRip XviD-MAXSPEED :.

Es ist einige Zeit vergangen, seit die Avengers New York gegen den Angriff einer außerirdischen Armee verteidigt haben. Jeder ist seitdem seinen eigenen Weg gegangen und manch einer hatte sein ganz persönliches Abenteuer zu bestehen. Als Milliardär Tony Stark ein stillgelegtes Friedensprogramm reaktiviert, gerät die Situation plötzlich außer Kontrolle und das Schicksal der Erde steht auf dem Spiel. Gemeinsam müssen sich die Avengers Iron Man, Thor, Hulk, Captain America, Black Widow und Hawkeye gegen den scheinbar übermächtigen Ultron stellen, der wild entschlossen ist, die gesamte Menschheit auszulöschen. Um seine Pläne zu vereiteln, müssen die Avengers unberechenbare Allianzen eingehen und in eine Schlacht von globalen Ausmaßen ziehen.

Titel: Avengers Age of Ultron
Genre: Action
Laufzeit: 141 Min. | Sprache/n: ENG
Audio Stream: AC3
Video Codec: MPEG-4 DivX / Xvid
Video Stream: HD-RiP
Hoster: Uploaded.net, Share-online.biz
Größe: 2097,02 MB
Parts: 3 Dateien

nfo:

Code:

Avengers Age of Ultron (2015) HDRip XviD-MAXSPEED
Format : AVI
Format/Info : Audio Video Interleave
Format profile : OpenDML
File size : 2.05 GiB
Duration : 2h 21mn
Overall bit rate : 2 070 Kbps
Writing application : VirtualDubMod 198.41.213.95 (build 2542/release)
Writing library : VirtualDubMod build 2542/release
Original source form : MAX TORRENTZ
Copyright : SIGISMUNT

Video
ID : 0
Format : MPEG-4 Visual
Format profile : Advanced Simple@L5
Format settings, BVOP : 2
Format settings, QPel : No
Format settings, GMC : No warppoints
Format settings, Matrix : Default (MPEG)
Codec ID : XVID
Codec ID/Hint : XviD
Duration : 2h 21mn
Bit rate : 1 675 Kbps
Width : 720 pixels
Height : 304 pixels
Display aspect ratio : 2.35:1
Frame rate : 23.976 fps
Color space : YUV
Chroma subsampling : 4:2:0
Bit depth : 8 bits
Scan type : Progressive
Compression mode : Lossy
Bits/(Pixel*Frame) : 0.319
Stream size : 1.66 GiB (81%)
Writing library : XviD 1.2.1 (UTC 2008-12-04)

Audio
ID : 1
Format : AC-3
Format/Info : Audio Coding 3
Mode extension : CM (complete main)
Format settings, Endianness : Big
Codec ID : 2000
Duration : 2h 21mn
Bit rate mode : Constant
Bit rate : 384 Kbps
Channel(s) : 6 channels
Channel positions : Front: L C R, Side: L R, LFE
Sampling rate : 48.0 KHz
Bit depth : 16 bits
Compression mode : Lossy
Stream size : 388 MiB (19%)
Alignment : Split accross interleaves
Interleave, duration : 42 ms (1.00 video frame)
Interleave, preload duration : 500 ms

Source: WEBDL HD (clean encode/source, perfect a/v/sync quality,sample included)
This torrent is not seedbox supported,please seed it to the MAX

Uploader Note: If you think image it’s a little dark on your device then
VLC->Ctrl+E->Video Effects->Image adjust->Brightness->Close, simple as 1,2,3
so no more complaints about this please,thank you

Mirror: 1

Uploaded.net

Mirror: 2

Share-online.biz






Share this