Deadly Games – Allein gegen den Weihnachtsmann 1989 German MP3 Dubbed DVDRiP XviD – LucioFulci

Originaltitel: 3615 code Père Noël
Englischer Titel: Game Over

Quelle Video: Französische DVD
Quelle Ton: Digitaler VHS Mitschnitt des Atlas Columbia Tapes
Format : XviD
Größe : 1,24 GB
Länge : 01:27:28 (25FPS/PAL)
Sprache : deutsch

MEDIA INFO

Code:

Format                                  : AVI
Format/Info                              : Audio Video Interleave
File size                                : 1.24 GiB
Duration                                : 1h 27mn
Overall bit rate                        : 2 034 Kbps
Writing application                      : VirtualDubMod 1.5.10.2 (build 2540/release)
Writing library                          : VirtualDubMod build 2540/release

Video
ID                                      : 0
Format                                  : MPEG-4 Visual
Format profile                          : Advanced Simple@L5
Format settings, BVOP                    : 2
Format settings, QPel                    : No
Format settings, GMC                    : No warppoints
Format settings, Matrix                  : Default (H.263)
Codec ID                                : XVID
Codec ID/Hint                            : XviD
Duration                                : 1h 27mn
Bit rate                                : 1 832 Kbps
Width                                    : 624 pixels
Height                                  : 336 pixels
Display aspect ratio                    : 1.85:1
Frame rate                              : 25.000 fps
Color space                              : YUV
Chroma subsampling                      : 4:2:0
Bit depth                                : 8 bits
Scan type                                : Progressive
Compression mode                        : Lossy
Bits/(Pixel*Frame)                      : 0.350
Stream size                              : 1.12 GiB (90%)
Writing library                          : XviD 63

Audio
ID                                      : 1
Format                                  : MPEG Audio
Format version                          : Version 1
Format profile                          : Layer 3
Mode                                    : Joint stereo
Codec ID                                : 55
Codec ID/Hint                            : MP3
Duration                                : 1h 27mn
Bit rate mode                            : Constant
Bit rate                                : 192 Kbps
Channel(s)                              : 2 channels
Sampling rate                            : 48.0 KHz
Compression mode                        : Lossy
Delay relative to video                  : 5ms
Stream size                              : 120 MiB (9%)
Alignment                                : Split accross interleaves
Interleave, duration                    : 40 ms (1.00 video frame)
Interleave, preload duration            : 504 ms

Bildvergleich VHSRiP (=UPP AUF YOUTUBE) DVDRiP

VHSRiP:

DVDRiP:

UPLOADED
KEIN PASSWORT

Mirrors absolut erwünscht! 🙂






Search keywords

Share this