Movie star Vincent Chase, together with his boys Eric, Turtle, and Johnny, are back – and back in business with super agent-turned-studio head Ari Gold on a risky project that will serve as Vince’s directorial debut.

Größe: ~ 1515.66 MB

Format: XViD

Laufzeit: ~ 104 Min.

Genre: Comedy

R E L E A S E i N F O

Code:

[pre]                                                                        ..
.–~*teu.          .ue~~%u.      < .z@8"`
dF    988Nx      .d88  z88i      !@88E
d888b  `8888>    x888E  *8888      ‘888E  u
?8888>  98888F    :8888E  ^””        888E u@8NL
“**”  x88888~    98888E.=tWc.        888E`”88*”
d8888*`    98888N  ‘888N      888E .dN.
z8**”`  :    98888E  8888E      888E~8888
.      .        :?…..  ..F    ‘8888E  8888E      888E ‘888&    .      .
.@8c  .@8c      <""888888888~    ?888E  8888"      888E  9888.  .@8c  .@8c
‘%888″ ‘%888″    8:  “888888*      “88&  888″    ‘”888*” 4888″ ‘%888″ ‘%888″
^*    ^*      “”    “**”`          “”==*””          “”    “”    ^*    ^*

.m//oooo/:.“`h“y +/“`.:/+++/oyo
`:yNy+-“      h` s +/      “-/yds:`
-sdy/.            h` s +/            `:sho-
:yh+.              h` o +/              `/yy-
-yh/`                h` + +/                `-yy.
`oh/……..“`        h` / +/          “…..“:h+`
.hNhyyyyysssoo++/-`      h` / +/      `.-:/+oooossssoomy.
-mmdyyso+++++++o+++o/-`  h` : +/  `.:+/++++/////++oyyhNd-
-myoso++/:::::-…..-/+/-  h` – +/  .:+/-…..-:::::/++ossdm.
.ms-ysossyhyyyyhyyso:.“:+/`o+ .`y-`/o:` .:+syhhhhhhhyssooh/hd`
yh-hshysshhdmmddhysyhy+-` :s:+o.y:-s/` .+yhyyhdmmmmmddhyyhsh/ms
:N.yshohNMMMNMMMMMMMmyohy+` `y//h:-h. `/yhyhmMMMMMMNMMMMMdshyy/N-
hs:om+NMMMMMMMNMMMMMMMNsyh+` `d.“d- `+yhyNMMMMMMNNMMMMMMMMsdo/hs
`N-/yomMMMMMMMMMNNMMMMMMM+hs+  os +y  /omoMMMMMMMNMMMMMMMMMMN+d//m
-N :d/MMMMMMMMMMMMNMMMMMMm+do  /h oo  +ysmMMMMMNMMMMMMMMMMMMM+N/.N.
:m :d+MMMMMMMMMMMMMMNMMMMhsy+“s+ :h“/ohhMMMNMMMMMMMMMMMMMMM+N:`N.
-N :h+MMMMMMMMMMMMMMMMNMmodo–/h`. y+–ohsmNNMMMMMMMMMMMMMMMM+m:`N.
`N..ssdMMMMMMMMMMMMMMMNhsho/:+y` / `so/:oyyhNMMMMMMMMMMMMMMMNoy–m`
h/ +moMMMMMMMMMMMMMMmsyso++so`  o  +s++oshymMMMMMMMMMMMMMMydo`+y
/d :homMMMMMMMMMMMmyyyooosy:  .o.`  -ssoosyyymMMMMMMMMMMMN+d: d-
d/ +m+mNMMMMMMNdyyysssss/`    :s/.    :ysssoyyyhNMMMMMMMN+do`+y
.d-.ohshNNNNdyyyysyhsy+-`  “`+s+:`  “`:shsyyyhyyhNNNNd+hy..d.
.+h..+dhyyhodyyydyhy/.–` ..`.yss+“-.`. .+ohydhhyhshyyyho:.h:
./h- ++yydsmdmhh+/+..–  -…yyd+  `…..+–/sdmddydhy+:.:h:
`..:hoo//:/.-:.:o+/++:-:- .–:+/s+:-…:-:++/+:–:-`/::+ohd..-`
`smhsooososooo+++/::.–.`  `  .::-:///+++sosoosssyhmo`
:dmdmdhyysyoso+o/::`      /  `.–/+ooosssyyhhddmNh-
`/dMMmmhdyyyss/-        +    -:-/syshyddmNMMh:
`:yNMNNmho/.          +      `-:::shmNMMNy-
./dh/.`            +        .::/omy/`
./o-      `++              +          `.y/        -o/.
`-/+o+/d/+`      /y:/oy:    .///y///.    /yooo.`      `o/h/+++/.
`-/+o+//+::d`.+-  .sooooooh-  `o/:/:+:/:/+`  :hoooo+os`  -s. h:////+o+/-`
`-/+o+/+/:/+:/+y/ `+:  `hsooooooh. o-/hoyhyoh/:o -hoooooosy`  /o` /y+/:+/:///+o+:-`
-so+++:/+/://:/+:/d. `//  -doooooosy`h-oNyMMMyNo:h.yoooooood.  ++` `d/:+/://:/+::+++oo.
d+://://:/+/://:/+os  `sosdNdoooooosy+/:yhhdhhy:/+yooooooodNdsss`  so+/://://:/+/://:+y
.h///://:///://://:/y+ :NMMMMMhooooooss////+s+//+/ssoooooodMMMMMN/ +y/://://:///://://:h
`d+/:+/://:/+/://://:y/`mMMMMMNyooooooy+`-:/+/:-`oyoooooohMMMMMMN.:y///://:///://://:/+h
y////://://:///://:/+h::mMMMmhysooooooy/      +yooooooyyhmMMMm:-h+/://:///://://:////o
-y/:/+/://://:///://:/h:.+:s: `ysooooooy      `hooooooys  /y/+.-h/://://:///://://::/y.
o+//:///://://:/+/:///y:  `s` `yss+/-.`  .-://+syyyoss` .y`  :y///://:/+/://://:///++
`y+:///://://:///://:/+y/  .o  `sh    “.://+osyhNN–` `y.  /y+/://:/+/://://:///:+s`
.y+/:///:+/://:/+/://:/so` //  +d-///////++++oydNd    +/ `oy/://:/+/://://:/+/:/+o`
.s///:/+/://://:/+/:+/:+s-`s` sh-:oy:—–:+o–yh  .y`-so://:/+::+/://:/+::///o`
.so:/+::+/://:/+:/+/:///o+y/ /s:mdo      .md-s/  +y+o///:/+:/+/://:/+:/+/:+o`
`+s+:/+::+/://:/+::+//+ooo.  `:yy+      /yy:`    -ooo+//+:/+/://:/+:/+/:+o/
-so+:/+/:+/:/+/+o+//-`      `+s-`o:`-/s+          `-//+o+/+/:/+:/+::+++.
:oso//+/+so//-`              `-:::::-`                `-/+os//+//+o+:
./os+/-`                                                `:/+s+:.

       

Code:

       
http://www.imdb.com/title/tt1674771/

Plot:

Movie star Vincent Chase, together with his boys Eric, Turtle, and Johnny, are back – and back in business with super agent-turned-studio head Ari Gold on a risky project that will serve as Vince’s directorial debut.

Sources – VIDEO: 720p. mp4….Thanks 😛
AUDIO: 720p. mp4 ….Thanks 😛

Complete name               : Entourage.2015.SUBBED.HDRip.XViD-26k.avi
Format                      : AVI
Format/Info                 : Audio Video Interleave
File size                   : 1.44 GiB
Duration                    : 1h 40mn
Overall bit rate            : 2 062 Kbps
Writing library             : VirtualDub build 32839/release

Video
ID                          : 0
Format                      : MPEG-4 Visual
Format profile              : Advanced Simple@L5
Format settings, BVOP       : 2
Format settings, QPel       : Yes
Format settings, GMC        : No warppoints
Format settings, Matrix     : Default (H.263)
Muxing mode                 : Packed bitstream
Codec ID                    : XVID
Codec ID/Hint               : XviD
Duration                    : 1h 40mn
Bit rate                    : 1 924 Kbps
Width                       : 720 pixels
Height                      : 304 pixels
Display aspect ratio        : 2.35:1
Frame rate                  : 23.976 fps
Color space                 : YUV
Chroma subsampling          : 4:2:0
Bit depth                   : 8 bits
Scan type                   : Progressive
Compression mode            : Lossy
Bits/(Pixel*Frame)          : 0.367
Stream size                 : 1.35 GiB (93%)
Writing library             : XviD 66

Audio
ID                          : 1
Format                      : MPEG Audio
Format version              : Version 1
Format profile              : Layer 3
Mode                        : Joint stereo
Mode extension              : MS Stereo
Codec ID                    : 55
Codec ID/Hint               : MP3
Duration                    : 1h 40mn
Bit rate mode               : Constant
Bit rate                    : 128 Kbps
Channel(s)                  : 2 channels
Sampling rate               : 48.0 KHz
Compression mode            : Lossy
Delay relative to video     : 500ms
Stream size                 : 91.7 MiB (6%)
Alignment                   : Split accross interleaves
Interleave, duration        : 42 ms (1.00 video frame)
Writing library             : LAME3.99r
Encoding settings           : -m j -V 4 -q 2 -lowpass 17 -b 128

Notes

Took the nice 720p HDRip and made script to resize, dropped into vdub and denoised, few other lil tweaks and sharpen back up sum.. does have HC foreign subs throughout movie and watermark at start and is missing sum bits due to beign cut out (not by us as ALL encodes have missing bits from them from source).. turned out very nice enjoy till nosub hits with all parts intact..

enjoy….

Screens:






Greetz:

To those that deserve it. You know who you are..

To all the people who have helped me  you know who you are

Anything to offer email us @: whoopdeedoo@hushmail.me
[/pre]

250mb Parts | Hoster untereinander kompatibel! | 1x gepackt!

Share-online.biz

Share-online.biz

Uploaded.net

Uploaded.net






Share this