Tracklist:

CD 1:

01. The Expert 2:55
02. Planet Dada 3:08
03. Squeeze Please 3:17
04. Out Of Dawn 3:11
05. Oh, Yeah 3:07
06. How How 2:41
07. The Race 8:12
08. Vicious Games 4:22
09. Jungle Bill 6:11
10. Till Tomorrow 4:16
11. Soul On Ice 3:12
12. Do It 3:11
13. Kiss In Blue 3:34
14. Fat Cry 4:13
15. You Gotta Say Yes To Another Excess 2:10
16. Rubberbandman 3:39
17. Goldrush 4:21
18. Who’s Gone 3:42
19. Move Dance Be Born 6:05
20. The Rhythm Divine (1992 Version) 4:21

CD 2:

01. Jingle Bells 2:48
02. Tiger Dust 5:05
03. Shake And Shiver 4:35
04. Trackless Deep 3:21
05. Distant Solution 4:47
06. La Habanera 5:14
07. Tied Up 6:14
08. Don Turbulento 4:55
09. Drive-Driven 4:19
10. Sax 3:17
11. On The Run 4:41
12. Houdini 4:14
13. I… I’m In Love 3:26
14. Moon On Ice 4:17
15. Nervous 2:58
16. Tremendous Pain 4:03
17. Desire 3:45
18. Bostich 2:15
19. Pinball Cha Cha (12 Mix) 5:22

Log:

CD 1:

Отчёт EAC об извлечении, выполненном 24. марта 2013, 13:28

– / Yello – Greatest Hits CD1

Дисковод: ASUS DRW-1608P3S Adapter: 0 ID: 0

Режим чтения : Достоверность
Использование точного потока : Да
Отключение кэша аудио : Да
Использование указателей C2 : Нет

Коррекция смещения при чтении : 48
Способность читать области Lead-in и Lead-out : Нет
Заполнение пропущенных сэмплов тишиной : Да
Удаление блоков с тишиной в начале и конце : Нет
При вычислениях CRC использовались нулевые сэмплы : Да
Интерфейс : Встроенный Win32-интерфейс для Win NT/2000
Обработка зазоров : Добавлено к предыдущему треку

Выходной формат : Пользовательский кодировщик
Выбранный битрейт : 768 kBit/s
Качество : Высокий
Добавление ID3-тега : Нет
Утилита сжатия : C:\Program Files (x86)\Exact Audio Copy\FLAC\FLAC.EXE
Дополнительные параметры : -6 -V -T “ARTIST=%artist%” -T “TITLE=%title%” -T “ALBUM=%albumtitle%” -T “DATE=%year%” -T “TRACKNUMBER=%tracknr%” -T “GENRE=%genre%” -T “COMMENT=%comment%” -T “BAND=%albuminterpret%” -T “ALBUMARTIST=%albuminterpret%” -T “COMPOSER=%composer%” %haslyrics%–tag-from-file=LYRICS=”%lyricsfile%”%haslyrics% -T “DISCNUMBER=%cdnumber%” -T “TOTALDISCS=%totalcds%” -T “TOTALTRACKS=%numtracks%” %hascover%–picture=”%coverfile%”%hascover% %source% -o %dest%

TOC извлечённого CD

Трек | Старт | Длительность | Начальный сектор | Конечный сектор
———————————————————————
1 | 0:00.00 | 2:54.50 | 0 | 13099
2 | 2:54.50 | 3:07.74 | 13100 | 27198
3 | 6:02.49 | 3:16.56 | 27199 | 41954
4 | 9:19.30 | 3:10.67 | 41955 | 56271
5 | 12:30.22 | 3:07.12 | 56272 | 70308
6 | 15:37.34 | 2:41.25 | 70309 | 82408
7 | 18:18.59 | 8:11.49 | 82409 | 119282
8 | 26:30.33 | 4:21.51 | 119283 | 138908
9 | 30:52.09 | 6:10.50 | 138909 | 166708
10 | 37:02.59 | 4:16.30 | 166709 | 185938
11 | 41:19.14 | 3:12.11 | 185939 | 200349
12 | 44:31.25 | 3:10.48 | 200350 | 214647
13 | 47:41.73 | 3:33.65 | 214648 | 230687
14 | 51:15.63 | 4:12.73 | 230688 | 249660
15 | 55:28.61 | 2:10.06 | 249661 | 259416
16 | 57:38.67 | 3:38.49 | 259417 | 275815
17 | 61:17.41 | 4:21.14 | 275816 | 295404
18 | 65:38.55 | 3:42.06 | 295405 | 312060
19 | 69:20.61 | 6:05.30 | 312061 | 339465
20 | 75:26.16 | 4:20.53 | 339466 | 359018

Трек 1

Имя файла T:\HQ MUSIC\Мои РИПы\YELLO – GREATEST HITS ( 2 CD ) 2010\Yello – Greatest Hits CD1v2\01. Yello – The Expert.wav

Длина предзазора 0:00:02.00

Пиковый уровень 88.7 %
Скорость извлечения 1.6 X
Качество трека 100.0 %
CRC теста AD072CCF
CRC копии AD072CCF
Точное извлечение (достоверность 2) [FBF76E67] (AR v1)
Копирование… OK

Трек 2

Имя файла T:\HQ MUSIC\Мои РИПы\YELLO – GREATEST HITS ( 2 CD ) 2010\Yello – Greatest Hits CD1v2\02. Yello – Planet Dada.wav

Пиковый уровень 92.3 %
Скорость извлечения 1.8 X
Качество трека 100.0 %
CRC теста 0FAD22BB
CRC копии 0FAD22BB
Точное извлечение (достоверность 2) [07599A45] (AR v1)
Копирование… OK

Трек 3

Имя файла T:\HQ MUSIC\Мои РИПы\YELLO – GREATEST HITS ( 2 CD ) 2010\Yello – Greatest Hits CD1v2\03. Yello – Squeeze Please.wav

Пиковый уровень 89.7 %
Скорость извлечения 1.9 X
Качество трека 100.0 %
CRC теста DF0ABFBF
CRC копии DF0ABFBF
Точное извлечение (достоверность 2) [C31FAA11] (AR v1)
Копирование… OK

Трек 4

Имя файла T:\HQ MUSIC\Мои РИПы\YELLO – GREATEST HITS ( 2 CD ) 2010\Yello – Greatest Hits CD1v2\04. Yello – Out Of Dawn.wav

Пиковый уровень 100.0 %
Скорость извлечения 1.7 X
Качество трека 99.9 %
CRC теста 0D203207
CRC копии 0D203207
Точное извлечение (достоверность 1) [DBC469A8] (AR v1)
Копирование… OK

Трек 5

Имя файла T:\HQ MUSIC\Мои РИПы\YELLO – GREATEST HITS ( 2 CD ) 2010\Yello – Greatest Hits CD1v2\05. Yello – Oh Yeah.wav

Пиковый уровень 88.5 %
Скорость извлечения 2.1 X
Качество трека 100.0 %
CRC теста A45ADFB3
CRC копии A45ADFB3
Точное извлечение (достоверность 1) [278692DF] (AR v1)
Копирование… OK

Трек 6

Имя файла T:\HQ MUSIC\Мои РИПы\YELLO – GREATEST HITS ( 2 CD ) 2010\Yello – Greatest Hits CD1v2\06. Yello – How How.wav

Пиковый уровень 100.0 %
Скорость извлечения 1.8 X
Качество трека 99.9 %
CRC теста 3F404D21
CRC копии 3F404D21
Точное извлечение (достоверность 1) [9CD4EC03] (AR v1)
Копирование… OK

Трек 7

Имя файла T:\HQ MUSIC\Мои РИПы\YELLO – GREATEST HITS ( 2 CD ) 2010\Yello – Greatest Hits CD1v2\07. Yello – The Race.wav

Пиковый уровень 100.0 %
Скорость извлечения 2.6 X
Качество трека 100.0 %
CRC теста A06E92F4
CRC копии A06E92F4
Точное извлечение (достоверность 1) [D5CC5507] (AR v1)
Копирование… OK

Трек 8

Имя файла T:\HQ MUSIC\Мои РИПы\YELLO – GREATEST HITS ( 2 CD ) 2010\Yello – Greatest Hits CD1v2\08. Yello – Vicious Games.wav

Пиковый уровень 97.2 %
Скорость извлечения 2.6 X
Качество трека 100.0 %
CRC теста 99410136
CRC копии 99410136
Точное извлечение (достоверность 1) [C11A10C5] (AR v1)
Копирование… OK

Трек 9

Имя файла T:\HQ MUSIC\Мои РИПы\YELLO – GREATEST HITS ( 2 CD ) 2010\Yello – Greatest Hits CD1v2\09. Yello – Jungle Bill.wav

Пиковый уровень 100.0 %
Скорость извлечения 2.9 X
Качество трека 100.0 %
CRC теста E13F7CD7
CRC копии E13F7CD7
Точное извлечение (достоверность 1) [01BB5698] (AR v1)
Копирование… OK

Трек 10

Имя файла T:\HQ MUSIC\Мои РИПы\YELLO – GREATEST HITS ( 2 CD ) 2010\Yello – Greatest Hits CD1v2\10. Yello – Till Tomorrow.wav

Пиковый уровень 100.0 %
Скорость извлечения 2.9 X
Качество трека 100.0 %
CRC теста 0B2EA50F
CRC копии 0B2EA50F
Точное извлечение (достоверность 1) [FC9B8B13] (AR v1)
Копирование… OK

Трек 11

Имя файла T:\HQ MUSIC\Мои РИПы\YELLO – GREATEST HITS ( 2 CD ) 2010\Yello – Greatest Hits CD1v2\11. Yello – Soul on Ice.wav

Пиковый уровень 79.9 %
Скорость извлечения 2.9 X
Качество трека 100.0 %
CRC теста 51CC31C2
CRC копии 51CC31C2
Точное извлечение (достоверность 1) [99AD61A9] (AR v1)
Копирование… OK

Трек 12

Имя файла T:\HQ MUSIC\Мои РИПы\YELLO – GREATEST HITS ( 2 CD ) 2010\Yello – Greatest Hits CD1v2\12. Yello – Do It.wav

Пиковый уровень 100.0 %
Скорость извлечения 2.9 X
Качество трека 100.0 %
CRC теста 2FFEB8EF
CRC копии 2FFEB8EF
Точное извлечение (достоверность 1) [54C303BE] (AR v1)
Копирование… OK

Трек 13

Имя файла T:\HQ MUSIC\Мои РИПы\YELLO – GREATEST HITS ( 2 CD ) 2010\Yello – Greatest Hits CD1v2\13. Yello – Kiss In Blue.wav

Пиковый уровень 100.0 %
Скорость извлечения 3.1 X
Качество трека 100.0 %
CRC теста 362A3F07
CRC копии 362A3F07
Точное извлечение (достоверность 1) [3DC9F5F3] (AR v1)
Копирование… OK

Трек 14

Имя файла T:\HQ MUSIC\Мои РИПы\YELLO – GREATEST HITS ( 2 CD ) 2010\Yello – Greatest Hits CD1v2\14. Yello – Fat Cry.wav

Пиковый уровень 100.0 %
Скорость извлечения 2.8 X
Качество трека 99.9 %
CRC теста 93003BA4
CRC копии 93003BA4
Точное извлечение (достоверность 1) [C3D8ED09] (AR v1)
Копирование… OK

Трек 15

Имя файла T:\HQ MUSIC\Мои РИПы\YELLO – GREATEST HITS ( 2 CD ) 2010\Yello – Greatest Hits CD1v2\15. Yello – You Gotta Say Yes to Another Excess.wav

Пиковый уровень 76.7 %
Скорость извлечения 2.9 X
Качество трека 100.0 %
CRC теста 337187E5
CRC копии 337187E5
Точное извлечение (достоверность 1) [D2547762] (AR v1)
Копирование… OK

Трек 16

Имя файла T:\HQ MUSIC\Мои РИПы\YELLO – GREATEST HITS ( 2 CD ) 2010\Yello – Greatest Hits CD1v2\16. Yello – Rubberbandman.wav

Пиковый уровень 100.0 %
Скорость извлечения 3.3 X
Качество трека 100.0 %
CRC теста D95C917E
CRC копии D95C917E
Точное извлечение (достоверность 1) [CED079B2] (AR v1)
Копирование… OK

Трек 17

Имя файла T:\HQ MUSIC\Мои РИПы\YELLO – GREATEST HITS ( 2 CD ) 2010\Yello – Greatest Hits CD1v2\17. Yello – Goldrush.wav

Пиковый уровень 100.0 %
Скорость извлечения 3.4 X
Качество трека 100.0 %
CRC теста 6CAB1FBF
CRC копии 6CAB1FBF
Точное извлечение (достоверность 1) [BC4D2FFB] (AR v1)
Копирование… OK

Трек 18

Имя файла T:\HQ MUSIC\Мои РИПы\YELLO – GREATEST HITS ( 2 CD ) 2010\Yello – Greatest Hits CD1v2\18. Yello – Who’s Gone.wav

Пиковый уровень 100.0 %
Скорость извлечения 3.0 X
Качество трека 99.9 %
CRC теста 679E01B0
CRC копии 679E01B0
Точное извлечение (достоверность 1) [776A024C] (AR v1)
Копирование… OK

Трек 19

Имя файла T:\HQ MUSIC\Мои РИПы\YELLO – GREATEST HITS ( 2 CD ) 2010\Yello – Greatest Hits CD1v2\19. Yello – Move Dance Be Born.wav

Пиковый уровень 100.0 %
Скорость извлечения 3.8 X
Качество трека 100.0 %
CRC теста 48B09873
CRC копии 48B09873
Точное извлечение (достоверность 1) [206FA5A3] (AR v1)
Копирование… OK

Трек 20

Имя файла T:\HQ MUSIC\Мои РИПы\YELLO – GREATEST HITS ( 2 CD ) 2010\Yello – Greatest Hits CD1v2\20. Yello – The Rhythm Divine (1992 version).wav

Пиковый уровень 99.7 %
Скорость извлечения 3.7 X
Качество трека 100.0 %
CRC теста 7FA2C559
CRC копии 7FA2C559
Точное извлечение (достоверность 1) [4C63AC1F] (AR v1)
Копирование… OK

Все треки извлечены точно

Ошибок не произошло

Конец отчёта

==== Контрольная сумма отчёта 3475C4E1D179A75FF0B029CFB6E40A4538EF9258AA080D17E1 C4BEE960259A54 ====

CD 2:

Exact Audio Copy V1.0 beta 3 from 29. August 2011

Отчёт EAC об извлечении, выполненном 24. марта 2013, 12:07

– / Yello – Greatest Hits CD2

Дисковод: ASUS DRW-1608P3S Adapter: 0 ID: 0

Режим чтения : Достоверность
Использование точного потока : Да
Отключение кэша аудио : Да
Использование указателей C2 : Нет

Коррекция смещения при чтении : 48
Способность читать области Lead-in и Lead-out : Нет
Заполнение пропущенных сэмплов тишиной : Да
Удаление блоков с тишиной в начале и конце : Нет
При вычислениях CRC использовались нулевые сэмплы : Да
Интерфейс : Встроенный Win32-интерфейс для Win NT/2000
Обработка зазоров : Добавлено к предыдущему треку

Выходной формат : Пользовательский кодировщик
Выбранный битрейт : 768 kBit/s
Качество : Высокий
Добавление ID3-тега : Нет
Утилита сжатия : C:\Program Files (x86)\Exact Audio Copy\FLAC\FLAC.EXE
Дополнительные параметры : -6 -V -T “ARTIST=%artist%” -T “TITLE=%title%” -T “ALBUM=%albumtitle%” -T “DATE=%year%” -T “TRACKNUMBER=%tracknr%” -T “GENRE=%genre%” -T “COMMENT=%comment%” -T “BAND=%albuminterpret%” -T “ALBUMARTIST=%albuminterpret%” -T “COMPOSER=%composer%” %haslyrics%–tag-from-file=LYRICS=”%lyricsfile%”%haslyrics% -T “DISCNUMBER=%cdnumber%” -T “TOTALDISCS=%totalcds%” -T “TOTALTRACKS=%numtracks%” %hascover%–picture=”%coverfile%”%hascover% %source% -o %dest%

TOC извлечённого CD

Трек | Старт | Длительность | Начальный сектор | Конечный сектор
———————————————————————
1 | 0:00.00 | 2:48.31 | 0 | 12630
2 | 2:48.31 | 5:04.56 | 12631 | 35486
3 | 7:53.12 | 4:35.11 | 35487 | 56122
4 | 12:28.23 | 3:21.30 | 56123 | 71227
5 | 15:49.53 | 4:47.23 | 71228 | 92775
6 | 20:37.01 | 5:14.07 | 92776 | 116332
7 | 25:51.08 | 6:14.20 | 116333 | 144402
8 | 32:05.28 | 4:55.06 | 144403 | 166533
9 | 37:00.34 | 4:19.10 | 166534 | 185968
10 | 41:19.44 | 3:16.42 | 185969 | 200710
11 | 44:36.11 | 4:40.62 | 200711 | 221772
12 | 49:16.73 | 4:14.14 | 221773 | 240836
13 | 53:31.12 | 3:26.07 | 240837 | 256293
14 | 56:57.19 | 4:17.20 | 256294 | 275588
15 | 61:14.39 | 2:57.62 | 275589 | 288925
16 | 64:12.26 | 4:02.70 | 288926 | 307145
17 | 68:15.21 | 3:45.00 | 307146 | 324020
18 | 72:00.21 | 2:15.12 | 324021 | 334157
19 | 74:15.33 | 5:22.18 | 334158 | 358325

Трек 1

Имя файла T:\HQ MUSIC\Мои РИПы\YELLO – GREATEST HITS ( 2 CD ) 2010\Yello – Greatest Hits CD2\01. Yello – Jingle Bells.wav

Длина предзазора 0:00:02.00

Пиковый уровень 100.0 %
Скорость извлечения 4.5 X
Качество трека 100.0 %
CRC теста F806EC4C
CRC копии F806EC4C
Трек не обнаружен в базе AccurateRip
Копирование… OK

Трек 2

Имя файла T:\HQ MUSIC\Мои РИПы\YELLO – GREATEST HITS ( 2 CD ) 2010\Yello – Greatest Hits CD2\02. Yello – Tiger Dust.wav

Длина предзазора 0:00:02.00

Пиковый уровень 99.0 %
Скорость извлечения 4.9 X
Качество трека 99.9 %
CRC теста 188BFAFA
CRC копии 188BFAFA
Трек не обнаружен в базе AccurateRip
Копирование… OK

Трек 3

Имя файла T:\HQ MUSIC\Мои РИПы\YELLO – GREATEST HITS ( 2 CD ) 2010\Yello – Greatest Hits CD2\03. Yello – Shake and Shiver.wav

Длина предзазора 0:00:02.00

Пиковый уровень 82.6 %
Скорость извлечения 5.8 X
Качество трека 100.0 %
CRC теста 68DFD2F0
CRC копии 68DFD2F0
Трек не обнаружен в базе AccurateRip
Копирование… OK

Трек 4

Имя файла T:\HQ MUSIC\Мои РИПы\YELLO – GREATEST HITS ( 2 CD ) 2010\Yello – Greatest Hits CD2\04. Yello – Trackless Deep.wav

Длина предзазора 0:00:02.00

Пиковый уровень 96.4 %
Скорость извлечения 5.9 X
Качество трека 100.0 %
CRC теста B3D8A77C
CRC копии B3D8A77C
Трек не обнаружен в базе AccurateRip
Копирование… OK

Трек 5

Имя файла T:\HQ MUSIC\Мои РИПы\YELLO – GREATEST HITS ( 2 CD ) 2010\Yello – Greatest Hits CD2\05. Yello – Distant Solution.wav

Длина предзазора 0:00:02.00

Пиковый уровень 100.0 %
Скорость извлечения 6.5 X
Качество трека 100.0 %
CRC теста 84B4DC3D
CRC копии 84B4DC3D
Трек не обнаружен в базе AccurateRip
Копирование… OK

Трек 6

Имя файла T:\HQ MUSIC\Мои РИПы\YELLO – GREATEST HITS ( 2 CD ) 2010\Yello – Greatest Hits CD2\06. Yello – La Habanera.wav

Длина предзазора 0:00:02.00

Пиковый уровень 99.7 %
Скорость извлечения 6.9 X
Качество трека 100.0 %
CRC теста 85D79871
CRC копии 85D79871
Трек не обнаружен в базе AccurateRip
Копирование… OK

Трек 7

Имя файла T:\HQ MUSIC\Мои РИПы\YELLO – GREATEST HITS ( 2 CD ) 2010\Yello – Greatest Hits CD2\07. Yello – Tied Up.wav

Длина предзазора 0:00:02.00

Пиковый уровень 100.0 %
Скорость извлечения 7.5 X
Качество трека 100.0 %
CRC теста 129487C8
CRC копии 129487C8
Трек не обнаружен в базе AccurateRip
Копирование… OK

Трек 8

Имя файла T:\HQ MUSIC\Мои РИПы\YELLO – GREATEST HITS ( 2 CD ) 2010\Yello – Greatest Hits CD2\08. Yello – Don Turbulento.wav

Длина предзазора 0:00:02.00

Пиковый уровень 92.2 %
Скорость извлечения 7.7 X
Качество трека 100.0 %
CRC теста 17E7357C
CRC копии 17E7357C
Трек не обнаружен в базе AccurateRip
Копирование… OK

Трек 9

Имя файла T:\HQ MUSIC\Мои РИПы\YELLO – GREATEST HITS ( 2 CD ) 2010\Yello – Greatest Hits CD2\09. Yello – Drive-Driven.wav

Длина предзазора 0:00:02.00

Пиковый уровень 100.0 %
Скорость извлечения 7.9 X
Качество трека 100.0 %
CRC теста A0547300
CRC копии A0547300
Трек не обнаружен в базе AccurateRip
Копирование… OK

Трек 10

Имя файла T:\HQ MUSIC\Мои РИПы\YELLO – GREATEST HITS ( 2 CD ) 2010\Yello – Greatest Hits CD2\10. Yello – Sax.wav

Длина предзазора 0:00:02.00

Пиковый уровень 100.0 %
Скорость извлечения 6.7 X
Качество трека 99.9 %
CRC теста 4764FA7D
CRC копии 4764FA7D
Трек не обнаружен в базе AccurateRip
Копирование… OK

Трек 11

Имя файла T:\HQ MUSIC\Мои РИПы\YELLO – GREATEST HITS ( 2 CD ) 2010\Yello – Greatest Hits CD2\11. Yello – On the Run.wav

Длина предзазора 0:00:02.00

Пиковый уровень 100.0 %
Скорость извлечения 7.5 X
Качество трека 99.9 %
CRC теста A9C73A3E
CRC копии A9C73A3E
Трек не обнаружен в базе AccurateRip
Копирование… OK

Трек 12

Имя файла T:\HQ MUSIC\Мои РИПы\YELLO – GREATEST HITS ( 2 CD ) 2010\Yello – Greatest Hits CD2\12. Yello – Houdini.wav

Длина предзазора 0:00:02.00

Пиковый уровень 93.1 %
Скорость извлечения 8.5 X
Качество трека 100.0 %
CRC теста 9D993C8B
CRC копии 9D993C8B
Трек не обнаружен в базе AccurateRip
Копирование… OK

Трек 13

Имя файла T:\HQ MUSIC\Мои РИПы\YELLO – GREATEST HITS ( 2 CD ) 2010\Yello – Greatest Hits CD2\13. Yello – I…I’m in Love.wav

Длина предзазора 0:00:02.00

Пиковый уровень 98.5 %
Скорость извлечения 8.5 X
Качество трека 100.0 %
CRC теста D6003209
CRC копии D6003209
Трек не обнаружен в базе AccurateRip
Копирование… OK

Трек 14

Имя файла T:\HQ MUSIC\Мои РИПы\YELLO – GREATEST HITS ( 2 CD ) 2010\Yello – Greatest Hits CD2\14. Yello – Moon on Ice.wav

Длина предзазора 0:00:02.00

Пиковый уровень 87.9 %
Скорость извлечения 6.2 X
Качество трека 99.9 %
CRC теста AD50D1A3
CRC копии AD50D1A3
Трек не обнаружен в базе AccurateRip
Копирование… OK

Трек 15

Имя файла T:\HQ MUSIC\Мои РИПы\YELLO – GREATEST HITS ( 2 CD ) 2010\Yello – Greatest Hits CD2\15. Yello – Nervous.wav

Длина предзазора 0:00:02.00

Пиковый уровень 100.0 %
Скорость извлечения 8.6 X
Качество трека 100.0 %
CRC теста 771420B3
CRC копии 771420B3
Трек не обнаружен в базе AccurateRip
Копирование… OK

Трек 16

Имя файла T:\HQ MUSIC\Мои РИПы\YELLO – GREATEST HITS ( 2 CD ) 2010\Yello – Greatest Hits CD2\16. Yello – Tremendous Pain.wav

Длина предзазора 0:00:02.00

Пиковый уровень 100.0 %
Скорость извлечения 9.2 X
Качество трека 100.0 %
CRC теста A4C5CC04
CRC копии A4C5CC04
Трек не обнаружен в базе AccurateRip
Копирование… OK

Трек 17

Имя файла T:\HQ MUSIC\Мои РИПы\YELLO – GREATEST HITS ( 2 CD ) 2010\Yello – Greatest Hits CD2\17. Yello – Desire.wav

Длина предзазора 0:00:02.00

Пиковый уровень 91.8 %
Скорость извлечения 9.3 X
Качество трека 100.0 %
CRC теста 15D89D20
CRC копии 15D89D20
Трек не обнаружен в базе AccurateRip
Копирование… OK

Трек 18

Имя файла T:\HQ MUSIC\Мои РИПы\YELLO – GREATEST HITS ( 2 CD ) 2010\Yello – Greatest Hits CD2\18. Yello – Bostich.wav

Длина предзазора 0:00:02.00

Пиковый уровень 94.9 %
Скорость извлечения 8.5 X
Качество трека 100.0 %
CRC теста 576D9621
CRC копии 576D9621
Трек не обнаружен в базе AccurateRip
Копирование… OK

Трек 19

Имя файла T:\HQ MUSIC\Мои РИПы\YELLO – GREATEST HITS ( 2 CD ) 2010\Yello – Greatest Hits CD2\19. Yello – Pinball Cha Cha (12 mix).wav

Длина предзазора 0:00:02.00

Пиковый уровень 68.3 %
Скорость извлечения 9.9 X
Качество трека 100.0 %
CRC теста 436C08F9
CRC копии 436C08F9
Трек не обнаружен в базе AccurateRip
Копирование… OK

Ни одного трека нет в базе AccurateRip

Ошибок не произошло

Конец отчёта

==== Контрольная сумма отчёта 1426FB5B1DAB81342D094A9C425BEE3F742A1F14D9BDADA6F1 F2BAA4B55FCC4F ====

Cue:

CD 1:

REM DATE 2010
REM DISCID 2012B214
REM COMMENT “ExactAudioCopy v1.0b3”
PERFORMER “”
TITLE “Yello – Greatest Hits CD1”
FILE “01. Yello – The Expert.wav” WAVE
TRACK 01 AUDIO
TITLE “The Expert”
PERFORMER “Yello”
FLAGS DCP
INDEX 01 00:00:00
FILE “02. Yello – Planet Dada.wav” WAVE
TRACK 02 AUDIO
TITLE “Planet Dada”
PERFORMER “Yello”
FLAGS DCP
INDEX 01 00:00:00
FILE “03. Yello – Squeeze Please.wav” WAVE
TRACK 03 AUDIO
TITLE “Squeeze Please”
PERFORMER “Yello”
FLAGS DCP
INDEX 01 00:00:00
FILE “04. Yello – Out Of Dawn.wav” WAVE
TRACK 04 AUDIO
TITLE “Out Of Dawn”
PERFORMER “Yello”
FLAGS DCP
INDEX 01 00:00:00
FILE “05. Yello – Oh Yeah.wav” WAVE
TRACK 05 AUDIO
TITLE “Oh Yeah”
PERFORMER “Yello”
FLAGS DCP
INDEX 01 00:00:00
FILE “06. Yello – How How.wav” WAVE
TRACK 06 AUDIO
TITLE “How How”
PERFORMER “Yello”
FLAGS DCP
INDEX 01 00:00:00
FILE “07. Yello – The Race.wav” WAVE
TRACK 07 AUDIO
TITLE “The Race”
PERFORMER “Yello”
FLAGS DCP
INDEX 01 00:00:00
FILE “08. Yello – Vicious Games.wav” WAVE
TRACK 08 AUDIO
TITLE “Vicious Games”
PERFORMER “Yello”
FLAGS DCP
INDEX 01 00:00:00
FILE “09. Yello – Jungle Bill.wav” WAVE
TRACK 09 AUDIO
TITLE “Jungle Bill”
PERFORMER “Yello”
FLAGS DCP
INDEX 01 00:00:00
FILE “10. Yello – Till Tomorrow.wav” WAVE
TRACK 10 AUDIO
TITLE “Till Tomorrow”
PERFORMER “Yello”
FLAGS DCP
INDEX 01 00:00:00
FILE “11. Yello – Soul on Ice.wav” WAVE
TRACK 11 AUDIO
TITLE “Soul on Ice”
PERFORMER “Yello”
FLAGS DCP
INDEX 01 00:00:00
FILE “12. Yello – Do It.wav” WAVE
TRACK 12 AUDIO
TITLE “Do It”
PERFORMER “Yello”
FLAGS DCP
INDEX 01 00:00:00
FILE “13. Yello – Kiss In Blue.wav” WAVE
TRACK 13 AUDIO
TITLE “Kiss In Blue”
PERFORMER “Yello”
FLAGS DCP
INDEX 01 00:00:00
FILE “14. Yello – Fat Cry.wav” WAVE
TRACK 14 AUDIO
TITLE “Fat Cry”
PERFORMER “Yello”
FLAGS DCP
INDEX 01 00:00:00
FILE “15. Yello – You Gotta Say Yes to Another Excess.wav” WAVE
TRACK 15 AUDIO
TITLE “You Gotta Say Yes to Another Excess”
PERFORMER “Yello”
FLAGS DCP
INDEX 01 00:00:00
FILE “16. Yello – Rubberbandman.wav” WAVE
TRACK 16 AUDIO
TITLE “Rubberbandman”
PERFORMER “Yello”
FLAGS DCP
INDEX 01 00:00:00
FILE “17. Yello – Goldrush.wav” WAVE
TRACK 17 AUDIO
TITLE “Goldrush”
PERFORMER “Yello”
FLAGS DCP
INDEX 01 00:00:00
FILE “18. Yello – Who’s Gone.wav” WAVE
TRACK 18 AUDIO
TITLE “Who’s Gone”
PERFORMER “Yello”
FLAGS DCP
INDEX 01 00:00:00
FILE “19. Yello – Move Dance Be Born.wav” WAVE
TRACK 19 AUDIO
TITLE “Move Dance Be Born”
PERFORMER “Yello”
FLAGS DCP
INDEX 01 00:00:00
FILE “20. Yello – The Rhythm Divine (1992 version).wav” WAVE
TRACK 20 AUDIO
TITLE “The Rhythm Divine (1992 version)”
PERFORMER “Yello”
FLAGS DCP
INDEX 01 00:00:00

CD 2:

REM DATE 2010
REM DISCID 2312A913
REM COMMENT “ExactAudioCopy v1.0b3”
PERFORMER “”
TITLE “Yello – Greatest Hits CD2”
FILE “01. Yello – Jingle Bells.wav” WAVE
TRACK 01 AUDIO
TITLE “Jingle Bells”
PERFORMER “Yello”
FLAGS DCP
INDEX 01 00:00:00
TRACK 02 AUDIO
TITLE “Tiger Dust”
PERFORMER “Yello”
FLAGS DCP
INDEX 00 02:46:31
FILE “02. Yello – Tiger Dust.wav” WAVE
INDEX 01 00:00:00
TRACK 03 AUDIO
TITLE “Shake and Shiver”
PERFORMER “Yello”
FLAGS DCP
INDEX 00 05:02:56
FILE “03. Yello – Shake and Shiver.wav” WAVE
INDEX 01 00:00:00
TRACK 04 AUDIO
TITLE “Trackless Deep”
PERFORMER “Yello”
FLAGS DCP
INDEX 00 04:33:11
FILE “04. Yello – Trackless Deep.wav” WAVE
INDEX 01 00:00:00
TRACK 05 AUDIO
TITLE “Distant Solution”
PERFORMER “Yello”
FLAGS DCP
INDEX 00 03:19:30
FILE “05. Yello – Distant Solution.wav” WAVE
INDEX 01 00:00:00
TRACK 06 AUDIO
TITLE “La Habanera”
PERFORMER “Yello”
FLAGS DCP
INDEX 00 04:45:23
FILE “06. Yello – La Habanera.wav” WAVE
INDEX 01 00:00:00
TRACK 07 AUDIO
TITLE “Tied Up”
PERFORMER “Yello”
FLAGS DCP
INDEX 00 05:12:07
FILE “07. Yello – Tied Up.wav” WAVE
INDEX 01 00:00:00
TRACK 08 AUDIO
TITLE “Don Turbulento”
PERFORMER “Yello”
FLAGS DCP
INDEX 00 06:12:20
FILE “08. Yello – Don Turbulento.wav” WAVE
INDEX 01 00:00:00
TRACK 09 AUDIO
TITLE “Drive-Driven”
PERFORMER “Yello”
FLAGS DCP
INDEX 00 04:53:06
FILE “09. Yello – Drive-Driven.wav” WAVE
INDEX 01 00:00:00
TRACK 10 AUDIO
TITLE “Sax”
PERFORMER “Yello”
FLAGS DCP
INDEX 00 04:17:10
FILE “10. Yello – Sax.wav” WAVE
INDEX 01 00:00:00
TRACK 11 AUDIO
TITLE “On the Run”
PERFORMER “Yello”
FLAGS DCP
INDEX 00 03:14:42
FILE “11. Yello – On the Run.wav” WAVE
INDEX 01 00:00:00
TRACK 12 AUDIO
TITLE “Houdini”
PERFORMER “Yello”
FLAGS DCP
INDEX 00 04:38:62
FILE “12. Yello – Houdini.wav” WAVE
INDEX 01 00:00:00
TRACK 13 AUDIO
TITLE “I…I’m in Love”
PERFORMER “Yello”
FLAGS DCP
INDEX 00 04:12:14
FILE “13. Yello – I…I’m in Love.wav” WAVE
INDEX 01 00:00:00
TRACK 14 AUDIO
TITLE “Moon on Ice”
PERFORMER “Yello”
FLAGS DCP
INDEX 00 03:24:07
FILE “14. Yello – Moon on Ice.wav” WAVE
INDEX 01 00:00:00
TRACK 15 AUDIO
TITLE “Nervous”
PERFORMER “Yello”
FLAGS DCP
INDEX 00 04:15:20
FILE “15. Yello – Nervous.wav” WAVE
INDEX 01 00:00:00
TRACK 16 AUDIO
TITLE “Tremendous Pain”
PERFORMER “Yello”
FLAGS DCP
INDEX 00 02:55:62
FILE “16. Yello – Tremendous Pain.wav” WAVE
INDEX 01 00:00:00
TRACK 17 AUDIO
TITLE “Desire”
PERFORMER “Yello”
FLAGS DCP
INDEX 00 04:00:70
FILE “17. Yello – Desire.wav” WAVE
INDEX 01 00:00:00
TRACK 18 AUDIO
TITLE “Bostich”
PERFORMER “Yello”
FLAGS DCP
INDEX 00 03:43:00
FILE “18. Yello – Bostich.wav” WAVE
INDEX 01 00:00:00
TRACK 19 AUDIO
TITLE “Pinball Cha Cha (12 mix)”
PERFORMER “Yello”
FLAGS DCP
INDEX 00 02:13:12
FILE “19. Yello – Pinball Cha Cha (12 mix).wav” WAVE
INDEX 01 00:00:00

Format: FLAC
Bitrate: lossless
Größe: 1,16 GB

Download

Share-Online, Uploaded

Share-Links

Share-Links.biz

Linkcrypt

Linkcrypt.ws // Key-Captcha

Nur 1x gepackt, kein Passwort, Mirror kompatibel






Share this