Tracklist:

01. Wind
02. Krummavisur
03. Lebensbeichte
04. Merseburger Zaubersprüche II
05. Stetit Puella
06. Vollmond
07. Die Gier
08. Omnia Sol Temperat
09. Le ‘Or Chiyuchech
10. Der Rattenfänger
11. Oskasteinar
12. Nature Nous Semont
13. Unter dem Meer

Log:

Exact Audio Copy V1.0 beta 3 from 29. August 2011

EAC extraction logfile from 19. October 2012, 17:38

In Extremo / Sünder ohne Zügel

Used drive : HL-DT-STDVDRAM GH24LS50 Adapter: 2 ID: 1

Read mode : Secure
Utilize accurate stream : Yes
Defeat audio cache : No
Make use of C2 pointers : Yes

Read offset correction : 667
Overread into Lead-In and Lead-Out : No
Fill up missing offset samples with silence : Yes
Delete leading and trailing silent blocks : No
Null samples used in CRC calculations : Yes
Used interface : Native Win32 interface for Win NT & 2000
Gap handling : Appended to previous track

Used output format : User Defined Encoder
Selected bitrate : 768 kBit/s
Quality : High
Add ID3 tag : No
Command line compressor : C:\Program Files (x86)\Exact Audio Copy\FLAC\FLAC.EXE
Additional command line options : -6 -V -T “ARTIST=%artist%” -T “TITLE=%title%” -T “ALBUM=%albumtitle%” -T “DATE=%year%” -T “TRACKNUMBER=%tracknr%” -T “GENRE=%genre%” -T “COMMENT=%comment%” -T “BAND=%albuminterpret%” -T “ALBUMARTIST=%albuminterpret%” -T “COMPOSER=%composer%” %haslyrics%–tag-from-file=LYRICS=”%lyricsfile%”%haslyrics% -T “DISCNUMBER=%cdnumber%” -T “TOTALDISCS=%totalcds%” -T “TOTALTRACKS=%numtracks%” %hascover%–picture=”%coverfile%”%hascover% %source% -o %dest%

TOC of the extracted CD

Track | Start | Length | Start sector | End sector
———————————————————
1 | 0:00.00 | 4:25.48 | 0 | 19922
2 | 4:25.48 | 3:48.67 | 19923 | 37089
3 | 8:14.40 | 4:39.61 | 37090 | 58075
4 | 12:54.26 | 4:22.55 | 58076 | 77780
5 | 17:17.06 | 4:05.10 | 77781 | 96165
6 | 21:22.16 | 4:00.54 | 96166 | 114219
7 | 25:22.70 | 3:47.03 | 114220 | 131247
8 | 29:09.73 | 4:14.47 | 131248 | 150344
9 | 33:24.45 | 3:11.18 | 150345 | 164687
10 | 36:35.63 | 4:14.42 | 164688 | 183779
11 | 40:50.30 | 3:24.43 | 183780 | 199122
12 | 44:14.73 | 4:32.45 | 199123 | 219567
13 | 48:47.43 | 5:12.58 | 219568 | 243025
14 | 56:32.26 | 4:36.17 | 254426 | 275142

Track 1

Filename C:\Users\Soifa\Documents\In Extremo – Sünder ohne Zügel1. Wind.wav

Pre-gap length 0:00:02.00

Peak level 100.0 %
Extraction speed 6.9 X
Track quality 100.0 %
Test CRC FA6231C2
Copy CRC FA6231C2
Accurately ripped (confidence 2) [D9C9DA44] (AR v2)
Copy OK

Track 2

Filename C:\Users\Soifa\Documents\In Extremo – Sünder ohne Zügel2. Krummavisur.wav

Pre-gap length 0:00:01.46

Peak level 100.0 %
Extraction speed 8.3 X
Track quality 100.0 %
Test CRC 6E304531
Copy CRC 6E304531
Accurately ripped (confidence 2) [174893FE] (AR v2)
Copy OK

Track 3

Filename C:\Users\Soifa\Documents\In Extremo – Sünder ohne Zügel3. Lebensbeichte.wav

Pre-gap length 0:00:01.47

Peak level 100.0 %
Extraction speed 7.9 X
Track quality 99.9 %
Test CRC F289AEF1
Copy CRC F289AEF1
Accurately ripped (confidence 2) [A578C1DF] (AR v2)
Copy OK

Track 4

Filename C:\Users\Soifa\Documents\In Extremo – Sünder ohne Zügel4. Merseburger Zaubersprüche II.wav

Pre-gap length 0:00:01.60

Peak level 100.0 %
Extraction speed 9.1 X
Track quality 100.0 %
Test CRC F35EBC28
Copy CRC F35EBC28
Accurately ripped (confidence 2) [00F1DF6E] (AR v2)
Copy OK

Track 5

Filename C:\Users\Soifa\Documents\In Extremo – Sünder ohne Zügel5. Stetit Puella.wav

Pre-gap length 0:00:01.18

Peak level 100.0 %
Extraction speed 10.5 X
Track quality 100.0 %
Test CRC C8430847
Copy CRC C8430847
Accurately ripped (confidence 2) [82562368] (AR v2)
Copy OK

Track 6

Filename C:\Users\Soifa\Documents\In Extremo – Sünder ohne Zügel6. Vollmond.wav

Pre-gap length 0:00:01.44

Peak level 100.0 %
Extraction speed 11.2 X
Track quality 100.0 %
Test CRC 925B40B2
Copy CRC 925B40B2
Accurately ripped (confidence 2) [91195565] (AR v2)
Copy OK

Track 7

Filename C:\Users\Soifa\Documents\In Extremo – Sünder ohne Zügel7. Die Gier.wav

Pre-gap length 0:00:01.49

Peak level 100.0 %
Extraction speed 10.6 X
Track quality 100.0 %
Test CRC E4C1975D
Copy CRC E4C1975D
Accurately ripped (confidence 2) [BCD6A001] (AR v2)
Copy OK

Track 8

Filename C:\Users\Soifa\Documents\In Extremo – Sünder ohne Zügel8. Omnia Sol Temperat.wav

Pre-gap length 0:00:01.41

Peak level 100.0 %
Extraction speed 10.4 X
Track quality 99.9 %
Test CRC CEB3A5E0
Copy CRC CEB3A5E0
Accurately ripped (confidence 2) [2E43052D] (AR v2)
Copy OK

Track 9

Filename C:\Users\Soifa\Documents\In Extremo – Sünder ohne Zügel9. Le ‘Or Chiyuchech.wav

Pre-gap length 0:00:01.45

Peak level 100.0 %
Extraction speed 12.7 X
Track quality 100.0 %
Test CRC B19B5E28
Copy CRC B19B5E28
Accurately ripped (confidence 2) [4FF5D6FD] (AR v2)
Copy OK

Track 10

Filename C:\Users\Soifa\Documents\In Extremo – Sünder ohne Zügel\10. Der Rattenfänger.wav

Pre-gap length 0:00:01.54

Peak level 100.0 %
Extraction speed 12.1 X
Track quality 100.0 %
Test CRC 7C45C83A
Copy CRC 7C45C83A
Accurately ripped (confidence 2) [471BFD9B] (AR v2)
Copy OK

Track 11

Filename C:\Users\Soifa\Documents\In Extremo – Sünder ohne Zügel\11. Oskasteinar.wav

Pre-gap length 0:00:01.44

Peak level 100.0 %
Extraction speed 11.0 X
Track quality 99.8 %
Test CRC F96DA977
Copy CRC F96DA977
Accurately ripped (confidence 2) [4ADEE43F] (AR v2)
Copy OK

Track 12

Filename C:\Users\Soifa\Documents\In Extremo – Sünder ohne Zügel\12. Nature Nous Semont.wav

Pre-gap length 0:00:01.38

Peak level 100.0 %
Extraction speed 14.1 X
Track quality 100.0 %
Test CRC BD737113
Copy CRC BD737113
Accurately ripped (confidence 2) [F63C87AD] (AR v2)
Copy OK

Track 13

Filename C:\Users\Soifa\Documents\In Extremo – Sünder ohne Zügel\13. Unter Dem Meer.wav

Pre-gap length 0:00:01.47

Peak level 99.9 %
Extraction speed 13.6 X
Track quality 100.0 %
Test CRC 19A7C470
Copy CRC 19A7C470
Accurately ripped (confidence 2) [1E590D22] (AR v2)
Copy OK

All tracks accurately ripped

No errors occurred

End of status report

—- CUETools DB Plugin V2.1.3

[CTDB TOCID: n4DH5i6zbOLsPc9C3TvKyW0QANU-] found, Submit result: n4DH5i6zbOLsPc9C3TvKyW0QANU- has been confirmed
[002ad977] (12/12) Accurately ripped

Cue:

REM GENRE Rock
REM DATE 2001
REM DISCID D20E540E
REM COMMENT “ExactAudioCopy v1.0b3”
CATALOG 0731458630722
PERFORMER “In Extremo”
TITLE “Sünder ohne Zügel”
FILE “01. Wind.wav” WAVE
TRACK 01 AUDIO
TITLE “Wind”
PERFORMER “In Extremo”
ISRC DEN120102544
INDEX 01 00:00:00
TRACK 02 AUDIO
TITLE “Krummavisur”
PERFORMER “In Extremo”
ISRC DEN120102545
INDEX 00 04:24:02
FILE “02. Krummavisur.wav” WAVE
INDEX 01 00:00:00
TRACK 03 AUDIO
TITLE “Lebensbeichte”
PERFORMER “In Extremo”
ISRC DEN120102546
INDEX 00 03:47:20
FILE “03. Lebensbeichte.wav” WAVE
INDEX 01 00:00:00
TRACK 04 AUDIO
TITLE “Merseburger Zaubersprüche II”
PERFORMER “In Extremo”
ISRC DEN120102547
INDEX 00 04:38:01
FILE “04. Merseburger Zaubersprüche II.wav” WAVE
INDEX 01 00:00:00
TRACK 05 AUDIO
TITLE “Stetit Puella”
PERFORMER “In Extremo”
ISRC DEN120102548
INDEX 00 04:21:37
FILE “05. Stetit Puella.wav” WAVE
INDEX 01 00:00:00
TRACK 06 AUDIO
TITLE “Vollmond”
PERFORMER “In Extremo”
ISRC DEN120102549
INDEX 00 04:03:41
FILE “06. Vollmond.wav” WAVE
INDEX 01 00:00:00
TRACK 07 AUDIO
TITLE “Die Gier”
PERFORMER “In Extremo”
ISRC DEN120102550
INDEX 00 03:59:05
FILE “07. Die Gier.wav” WAVE
INDEX 01 00:00:00
TRACK 08 AUDIO
TITLE “Omnia Sol Temperat”
PERFORMER “In Extremo”
ISRC DEN120102551
INDEX 00 03:45:37
FILE “08. Omnia Sol Temperat.wav” WAVE
INDEX 01 00:00:00
TRACK 09 AUDIO
TITLE “Le ‘Or Chiyuchech”
PERFORMER “In Extremo”
ISRC DEN120102552
INDEX 00 04:13:02
FILE “09. Le ‘Or Chiyuchech.wav” WAVE
INDEX 01 00:00:00
TRACK 10 AUDIO
TITLE “Der Rattenfänger”
PERFORMER “In Extremo”
ISRC DEN120102553
INDEX 00 03:09:39
FILE “10. Der Rattenfänger.wav” WAVE
INDEX 01 00:00:00
TRACK 11 AUDIO
TITLE “Oskasteinar”
PERFORMER “In Extremo”
ISRC DEN120102554
INDEX 00 04:12:73
FILE “11. Oskasteinar.wav” WAVE
INDEX 01 00:00:00
TRACK 12 AUDIO
TITLE “Nature Nous Semont”
PERFORMER “In Extremo”
ISRC DEN120102555
INDEX 00 03:23:05
FILE “12. Nature Nous Semont.wav” WAVE
INDEX 01 00:00:00
TRACK 13 AUDIO
TITLE “Unter Dem Meer”
PERFORMER “In Extremo”
ISRC DEN120102556
INDEX 00 04:30:73
FILE “13. Unter Dem Meer.wav” WAVE
INDEX 01 00:00:00
TRACK 14 MODEx/2xxx
TITLE “Video – Vollmond”
PERFORMER “In Extremo”
INDEX 00 05:12:58

Format: FLAC
Bitrate: lossless
Größe: 436 MB

Download

Share-Online, Uploaded

Share-Links

Share-Links.biz

Linkcrypt

Linkcrypt.ws // TextX

Nur 1x gepackt, kein Passwort, Mirror kompatibel






Share this