The.Target.2014.German.AC3.HDRip.x264-Cancer58

.:Beschreibung:.
Ein Mann ist ermordet worden, es flieht ein weiterer mit einer Kugel im Leib ins nächste fahrende Auto. Die Polizei hält ihn für den Hauptverdächtigen und stellt dem Bewusstlosen Bewacher zur Seite, als er ins Krankenhaus eingeliefert wird, wo Dr. Tae-yun seinen Dienst verrichtet. Kurz darauf erhält der einen Anruf. Ein Unbekannter behauptet, Tae-yuns schwangere Frau in seiner Gewalt zu haben, und erpresst ihn, den Verdächtigen aus dem Haus zu schaffen. Der Beginn einer atemlosen Verfolgungsjagd, die die Männer zusammen schweißt.

Seit in Südkorea der Deckel vom staatlichen Zensurtopf flog (zuvor durften nicht einmal schief sitzende Polizeimützen gezeigt werden), hat sich das Land einen Namen gemacht als Heimat von Hochglanzthrillern, die sowohl qualitativ als auch formal mit Hollywood mithalten.

.:Info:.
Größe: 1422.11 MB
Laufzeit: 101 Min.
Format: .mkv
Video Stream: BD-RIP
Video Codec: MPEG-4 H.264 / AVC
Audio Stream: Dolby Digital 5.1
Sprache/n: GER
Genre: Action

.:NFO:.

Code:

The.Target.2014.German.AC3.HDRip.x264-Cancer58.mkv
.
Format : Matroska
Format version : Version 4 / Version 2
File size : 1.39 GiB
Duration : 1h 41mn
Overall bit rate : 1 955 Kbps
Movie name : Cancer58
Encoded date : UTC 2015-08-28T14:19:55Z
Writing application : mkvmerge v8.2.0 (‘World of Adventure’) 64bit
Writing library : Lavf55.12.0
.
ID : 1
Format : AVC
Format/Info : Advanced Video Codec
Format profile : Main@L4.0
Format settings, CABAC : Yes
Format settings, ReFrames : 4 frames
Codec ID : V_MPEG4/ISO/AVC
Duration : 1h 41mn
Bit rate : 1 500 Kbps
Width : 720 pixels
Height : 306 pixels
Display aspect ratio : 2.35:1
Frame rate mode : Constant
Frame rate : 23.976 fps
Color space : YUV
Chroma subsampling : 4:2:0
Bit depth : 8 bits
Scan type : Progressive
Bits/(Pixel*Frame) : 0.284
Stream size : 1.04 GiB (75%)
Writing library : x264 core 148
.
ID : 2
Format : AC-3
Format/Info : Audio Coding 3
Mode extension : CM (complete main)
Format settings, Endianness : Big
Codec ID : A_AC3
Duration : 1h 41mn
Bit rate mode : Constant
Bit rate : 448 Kbps
Channel(s) : 6 channels
Channel positions : Front: L C R, Side: L R, LFE
Sampling rate : 48.0 KHz
Bit depth : 16 bits
Compression mode : Lossy
Delay relative to video : -5ms
Stream size : 326 MiB (23%)
Title : Surround
Language : German
Default : Yes
Forced : No
.
ID : 3
Format : ASS
Codec ID : S_TEXT/ASS
Codec ID/Info : Advanced Sub Station Alpha
Compression mode : Lossless
Language : German
Default : Yes
Forced : No
.
Plot: http://tinyurl.com/plxvpxb
.

Mirrors kompatibel

Uploaded.net

Share-online.biz







Share this