Tracklist:

01. I’ll Be Home For Christmas
02. Hark The Herald Angels Sing
03. Santa Claus Is Coming To Town
04. Silent Night
05. We Three Kings
06. We Wish You A Merry Christmas
07. What Child Is This
08. Adeste Fideles
09. Winter Wonderland
10. Mary’s Boy Child
11. Auld Lang Syne
12. Joy To The World

Log:

Exact Audio Copy V1.0 beta 3 from 29. August 2011

EAC extraction logfile from 20. November 2012, 13:53

Celtic Woman / Home for Christmas

Used drive : ASUS DRW-24B1LT Adapter: 3 ID: 0

Read mode : Secure
Utilize accurate stream : Yes
Defeat audio cache : Yes
Make use of C2 pointers : No

Read offset correction : 6
Overread into Lead-In and Lead-Out : No
Fill up missing offset samples with silence : Yes
Delete leading and trailing silent blocks : No
Null samples used in CRC calculations : Yes
Used interface : Native Win32 interface for Win NT & 2000

Used output format : User Defined Encoder
Selected bitrate : 1024 kBit/s
Quality : High
Add ID3 tag : Yes
Command line compressor : C:\Program Files\Exact Audio Copy\Flac\flac.exe
Additional command line options : -6 -V -T “ARTIST=%artist%” -T “TITLE=%title%” -T “ALBUM=%albumtitle%” -T “DATE=%year%” -T “TRACKNUMBER=%tracknr%” -T “GENRE=%genre%” -T “COMMENT=%comment%” %hascover%–picture=”%coverfile%”%hascover% %source% -o %dest%

TOC of the extracted CD

Track | Start | Length | Start sector | End sector
———————————————————
1 | 0:00.00 | 4:12.50 | 0 | 18949
2 | 4:12.50 | 5:01.66 | 18950 | 41590
3 | 9:14.41 | 4:13.50 | 41591 | 60615
4 | 13:28.16 | 3:35.58 | 60616 | 76798
5 | 17:03.74 | 3:37.14 | 76799 | 93087
6 | 20:41.13 | 3:37.35 | 93088 | 109397
7 | 24:18.48 | 4:31.57 | 109398 | 129779
8 | 28:50.30 | 4:20.11 | 129780 | 149290
9 | 33:10.41 | 2:51.06 | 149291 | 162121
10 | 36:01.47 | 3:07.60 | 162122 | 176206
11 | 39:09.32 | 3:27.17 | 176207 | 191748
12 | 42:36.49 | 2:55.56 | 191749 | 204929

Range status and errors

Selected range

Filename D:\DOWNLOAD\alt.binaries.sounds.lossless.country\C eltic Woman – Home for Christmas FLAC] (2012)\Celtic Woman – Home for Christmas.wav

Peak level 99.2 %
Extraction speed 7.2 X
Range quality 100.0 %
Copy CRC 1AF3A8B7
Copy OK

No errors occurred

AccurateRip summary

Track 1 not present in database
Track 2 not present in database
Track 3 not present in database
Track 4 not present in database
Track 5 not present in database
Track 6 not present in database
Track 7 not present in database
Track 8 not present in database
Track 9 not present in database
Track 10 not present in database
Track 11 not present in database
Track 12 not present in database

None of the tracks are present in the AccurateRip database

End of status report

==== Log checksum 91AE4A9E438A1181F99E226161AFF70D3D9EF35136DD54AE9D FCACE8AE60335E ====

Cue:

REM GENRE Country
REM DATE 2012
REM DISCID 900AAC0C
REM COMMENT “ExactAudioCopy v1.0b3”
PERFORMER “Celtic Woman”
TITLE “Home for Christmas”
FILE “Celtic Woman – Home for Christmas.flac” WAVE
TRACK 01 AUDIO
TITLE “I’ll Be Home For Christmas (Lisa Lambe)”
PERFORMER “Celtic Woman”
INDEX 01 00:00:00
TRACK 02 AUDIO
TITLE “Hark The Herald Angels Sing (Chloe Agnew, Meav Ni Mhaolchatha, Lisa Lambe, Ma…”
PERFORMER “Celtic Woman”
INDEX 01 04:12:50
TRACK 03 AUDIO
TITLE “Santa Claus Is Coming To Town (Chloe Agnew, Mairead Nesbitt)”
PERFORMER “Celtic Woman”
INDEX 01 09:14:41
TRACK 04 AUDIO
TITLE “Silent Night (Meav Ni Mhaolchatha)”
PERFORMER “Celtic Woman”
INDEX 01 13:28:16
TRACK 05 AUDIO
TITLE “We Three Kings (Lisa Lambe, Chloe Agnew, Meav Ni Mhaolchatha)”
PERFORMER “Celtic Woman”
INDEX 01 17:03:74
TRACK 06 AUDIO
TITLE “We Wish You A Merry Christmas (Chloe Agnew, Meav Ni Mhaolchatha, Lisa Lambe, …”
PERFORMER “Celtic Woman”
INDEX 01 20:41:13
TRACK 07 AUDIO
TITLE “What Child Is This (Meav Ni Mhaolchatha, Mairead Nesbitt)”
PERFORMER “Celtic Woman”
INDEX 01 24:18:48
TRACK 08 AUDIO
TITLE “Adeste Fidelis (Chloe Agnew)”
PERFORMER “Celtic Woman”
INDEX 01 28:50:30
TRACK 09 AUDIO
TITLE “Winter Wonderland (Chloe Agnew, Meav Ni Mhaolchatha, Lisa Lambe, Mairead Nesb…”
PERFORMER “Celtic Woman”
INDEX 01 33:10:41
TRACK 10 AUDIO
TITLE “Mary’s Boy Child (Lisa Lambe, Chloe Agnew, Meav Ni Mhaolchatha)”
PERFORMER “Celtic Woman”
INDEX 01 36:01:47
TRACK 11 AUDIO
TITLE “Auld Lang Syne (Lisa Lambe)”
PERFORMER “Celtic Woman”
INDEX 01 39:09:32
TRACK 12 AUDIO
TITLE “Joy To The World (Lisa Lambe, Chloe Agnew, Meav Ni Mhaolchatha)”
PERFORMER “Celtic Woman”
INDEX 01 42:36:49

Format: FLAC
Bitrate: lossless
Größe: 266 MB

Download

Share-Online, Uploaded

Share-Links

http://s2l.biz/5z4hzsn0ko9

Linkcrypt

http://linkcrypt.ws/dir/i412l133i0k08rv

Nur 1x gepackt, kein Passwort, Mirror kompatibel






Share this