Holy.Ghost.people.2013.mpeg4.720p.xvid-mkp

Titel: Holy Ghost people
Sprache/n: Englisch
Hoster: Uploaded.net
Größe: 955.88 MB

Die neunzehnjährige Charlotte benötigt die Hilfe eines Ex-Marines und Trinkers, da sie nach ihrer vermissten Schwester in den Appalachen suchen will. Ihre Suche führt sie zu einer ungewöhnlichen Kirche und einen mit Schlangen hantierenden Prediger, der seine Schäflein ermutigt, ihr Seelenheil in gefährlichen Unternehmungen zu finden. Charlotte und ihr Begleiter entdecken in den Bergen ein Mysterium, das ihnen in Mark und Bein geht, als klar wird, welches Schicksal die Schwester befallen hat…

Info:

General
Format : MPEG-4
Format profile : Base Media
Codec ID : isom
File size : 956 MiB
Duration : 1h 25mn
Overall bit rate mode : Variable
Overall bit rate : 1 572 Kbps
Writing application : Lavf56.36.100

Video
ID : 1
Format : AVC
Format/Info : Advanced Video Codec
Format profile : High@L3.1
Format settings, CABAC : Yes
Format settings, ReFrames : 4 frames
Codec ID : avc1
Codec ID/Info : Advanced Video Coding
Duration : 1h 25mn
Bit rate : 1 521 Kbps
Width : 1 280 pixels
Height : 720 pixels
Display aspect ratio : 16:9
Frame rate mode : Constant
Frame rate : 25.000 fps
Color space : YUV
Chroma subsampling : 4:2:0
Bit depth : 8 bits
Scan type : Progressive
Bits/(Pixel*Frame) : 0.066
Stream size : 906 MiB (95%)
Writing library : x264 core 142 r2495 6a301b6
Encoding settings : cabac=1 / ref=1 / deblock=1:0:0 / analyse=0x3:0x3 / me=dia / subme=1 / psy=1 / psy_rd=1.00:0.00 / mixed_ref=0 / me_range=16 / chroma_me=1 / trellis=0 / 8x8dct=1 / cqm=0 / deadzone=21,11 / fast_pskip=1 / chroma_qp_offset=0 / threads=18 / lookahead_threads=3 / sliced_threads=0 / nr=0 / decimate=1 / interlaced=0 / bluray_compat=0 / constrained_intra=0 / bframes=3 / b_pyramid=2 / b_adapt=1 / b_bias=0 / direct=1 / weightb=1 / open_gop=0 / weightp=1 / keyint=250 / keyint_min=25 / scenecut=40 / intra_refresh=0 / rc=abr / mbtree=0 / bitrate=1521 / ratetol=1.0 / qcomp=0.60 / qpmin=0 / qpmax=69 / qpstep=4 / ip_ratio=1.40 / pb_ratio=1.30 / aq=1:1.00

Audio
ID : 2
Format : AAC
Format/Info : Advanced Audio Codec
Format profile : LC
Codec ID : 40
Duration : 1h 25mn
Bit rate mode : Variable
Bit rate : 75.8 Kbps
Maximum bit rate : 80.0 Kbps
Channel(s) : 2 channels
Channel(s)_Original : 1 channel
Channel positions : Front: C
Sampling rate : 44.1 KHz
Compression mode : Lossy
Stream size : 46.1 MiB (5%)
Language : German

Uploaded.net






Share this