Letzte.Ausfahrt.Sauerland.2015.German.Xvid.mp3.TVR ip-rolli

Titel: Letzte Ausfahrt Sauerland
Sprache/n: Deutsch
Hoster: Uploaded.net, Share-online.biz
Größe: 752.46 MB

Seit einer gefühlten Ewigkeit haben die alten Freunde Horst und Johann sich in die selbstgewählte Einsamkeit des Sauerlands zurückgezogen. Am Möhnesee betreiben sie einen kleinen Bootsverleih. Vor allem mit dem grantigen Horst hat das Schicksal es nicht immer gut gemeint: Seine geliebte Frau verlor er durch ein tragisches Unglück und der Kontakt zu seiner Tochter beschränkt sich seit Jahren auf eine Geburtstagskarte und seinen 16-jährigen Enkel Elyas hat der mürrische Eigenbrötler noch nie gesehen. Erst nach einer niederschmetternden ärztlichen Diagnose beginnt Horst zu ahnen, dass er endlich mit seinem Leben ins Reine kommen muss.

Info:

General
Format : AVI
Format/Info : Audio Video Interleave
File size : 752 MiB
Duration : 1h 45mn
Overall bit rate : 994 Kbps
Writing application : Lavf54.6.100

Video
ID : 0
Format : MPEG-4 Visual
Format profile : Simple@L1
Format settings, BVOP : No
Format settings, QPel : No
Format settings, GMC : No warppoints
Format settings, Matrix : Default (H.263)
Codec ID : DX50
Codec ID/Hint : DivX 5
Duration : 1h 45mn
Bit rate : 854 Kbps
Width : 640 pixels
Height : 360 pixels
Display aspect ratio : 16:9
Frame rate : 25.000 fps
Color space : YUV
Chroma subsampling : 4:2:0
Bit depth : 8 bits
Scan type : Progressive
Compression mode : Lossy
Bits/(Pixel*Frame) : 0.148
Stream size : 646 MiB (86%)
Writing library : Lavc54.23.100

Audio
ID : 1
Format : MPEG Audio
Format version : Version 1
Format profile : Layer 3
Mode : Joint stereo
Mode extension : MS Stereo
Codec ID : 55
Codec ID/Hint : MP3
Duration : 1h 45mn
Bit rate mode : Constant
Bit rate : 128 Kbps
Channel(s) : 2 channels
Sampling rate : 44.1 KHz
Compression mode : Lossy
Stream size : 96.8 MiB (13%)
Alignment : Aligned on interleaves
Interleave, duration : 26 ms (0.65 video frame)

Uploaded.net

Share-online.biz






Share this