Nachspielzeit.2015.German.x264.AAC.TVRip-rolli

Titel: Nachspielzeit
Sprache/n: Deutsch
Hoster: Uploaded.net, Share-online.biz
Größe: 1124.99 MB

Ein moderner Heimatfilm aus Berlin Neukölln. Im Zentrum des Films steht der junge Deutsch-Türke Cem. Getrieben von dem Willen, sein Leben anders anzugehen als sein angepasster Vater Mahmut, eckt er in der konformen Gesellschaft oft an. Auch bei seiner Kollegin Astrid stößt er anfangs auf Ablehnung. Als Astrid von dem aggressiven Roman überfallen wird, sieht er seine Chance, sich zu beweisen.

Info:

General
Format : MPEG-4
Format profile : Base Media
Codec ID : isom
File size : 1.10 GiB
Duration : 1h 21mn
Overall bit rate mode : Variable
Overall bit rate : 1 928 Kbps
Encoded date : UTC 2015-08-22 15:16:13
Tagged date : UTC 2015-08-22 15:16:13

Video
ID : 1
Format : AVC
Format/Info : Advanced Video Codec
Format profile : High@L3.2
Format settings, CABAC : Yes
Format settings, ReFrames : 4 frames
Codec ID : avc1
Codec ID/Info : Advanced Video Coding
Duration : 1h 21mn
Bit rate : 1 744 Kbps
Maximum bit rate : 6 486 Kbps
Width : 1 280 pixels
Height : 720 pixels
Display aspect ratio : 16:9
Frame rate mode : Constant
Frame rate : 50.000 fps
Standard : PAL
Color space : YUV
Chroma subsampling : 4:2:0
Bit depth : 8 bits
Scan type : Progressive
Bits/(Pixel*Frame) : 0.038
Stream size : 1 018 MiB (90%)
Encoded date : UTC 2015-08-22 15:16:13
Tagged date : UTC 2015-08-22 15:16:34
Color range : Limited
Color primaries : BT.709
Transfer characteristics : BT.709
Matrix coefficients : BT.709

Audio
ID : 2
Format : AAC
Format/Info : Advanced Audio Codec
Format profile : LC
Codec ID : 40
Duration : 1h 21mn
Bit rate mode : Variable
Bit rate : 177 Kbps
Maximum bit rate : 194 Kbps
Channel(s) : 2 channels
Channel positions : Front: L R
Sampling rate : 48.0 KHz
Compression mode : Lossy
Stream size : 103 MiB (9%)
Title : /home/otr/otrmp4cut/public/Nachspielzeit_15.08.21_20-15_arte_80_TVOON_DE.mpg.HD.aac – Imported with GPAC 0.4.6-DEV-rev
Encoded date : UTC 2015-08-22 15:16:31
Tagged date : UTC 2015-08-22 15:16:34

Uploaded.net

Share-online.biz






Share this