Frank White – Weil die Straße nicht vergisst (2015)

Record Label: Maskulin
Release Date: 11.09.2015
Genre: Deutsch Rap / Hip-Hop
Format: FLAC
Quality: Lossless / Log (100%) / Cue
Size: 331 Mb
Hoster: uploaded.net
Tracklist:

01. Intro / Ich mach Realtalk
02. Schon von klein auf
03. Rap wieder hart
04. Ich häng auf den Straßen ab
05. Zur selben Zeit (feat. Jalil)
06. So wie Frank
07. Strassenstaub
08. CCN Kinder
09. HRSN Gesellschaft (feat. Pa Sports)
10. Weil die Straße nicht vergisst
11. Basstuning / Bordsteinfressen
12. Alles was ich kenne
13. Bild im Zement (feat. Kurdo)
14. Mit dem BMW Pt.2 (feat. Shindy)
15. Pallas
16. Pablo Escobar (feat. Jalil)

Log:

Exact Audio Copy V1.1 from 23. June 2015

EAC extraction logfile from 11. September 2015, 16:34

Frank White / Weil die Straße nicht vergisst (Premium Edition)

Used drive : TSSTcorpCDDVDW SH-S223C Adapter: 1 ID: 0

Read mode : Secure
Utilize accurate stream : Yes
Defeat audio cache : Yes
Make use of C2 pointers : No

Read offset correction : 697
Overread into Lead-In and Lead-Out : No
Fill up missing offset samples with silence : Yes
Delete leading and trailing silent blocks : No
Null samples used in CRC calculations : Yes
Used interface : Native Win32 interface for Win NT & 2000
Gap handling : Appended to previous track

Used output format : User Defined Encoder
Selected bitrate : 1024 kBit/s
Quality : High
Add ID3 tag : No
Command line compressor : C:\Program Files (x86)\Exact Audio Copy\Flac\flac.exe
Additional command line options : -8 -T “DISCNUMBER=%cdnumber%” -T “TOTALDISCS=%totalcds%” -T “ALBUM=%albumtitle%” -T “ALBUMARTIST=%albumartist%” -T “TRACKNUMBER=%tracknr%” -T “TOTALTRACKS=%numtracks%” -T “TITLE=%title%” -T “ARTIST=%artist%” -T “DATE=%year%” -T “GENRE=%genre%” %source% -o %dest%

TOC of the extracted CD

Track | Start | Length | Start sector | End sector
———————————————————
1 | 0:00.00 | 3:13.54 | 0 | 14528
2 | 3:13.54 | 2:54.42 | 14529 | 27620
3 | 6:08.21 | 2:56.00 | 27621 | 40820
4 | 9:04.21 | 3:14.23 | 40821 | 55393
5 | 12:18.44 | 3:28.14 | 55394 | 71007
6 | 15:46.58 | 3:01.56 | 71008 | 84638
7 | 18:48.39 | 3:03.18 | 84639 | 98381
8 | 21:51.57 | 3:17.24 | 98382 | 113180
9 | 25:09.06 | 3:38.49 | 113181 | 129579
10 | 28:47.55 | 3:12.28 | 129580 | 144007
11 | 32:00.08 | 2:56.32 | 144008 | 157239
12 | 34:56.40 | 2:45.20 | 157240 | 169634
13 | 37:41.60 | 3:04.36 | 169635 | 183470
14 | 40:46.21 | 3:32.23 | 183471 | 199393
15 | 44:18.44 | 2:39.09 | 199394 | 211327
16 | 46:57.53 | 3:09.64 | 211328 | 225566

Track 1

Filename C:\FLAC\Frank White – Weil die Straße nicht vergisst [Premium Edition – 2015]\01. Frank White – Intro,Ich mach Realtalk.wav

Pre-gap length 0:00:02.00

Peak level 98.4 %
Extraction speed 1.9 X
Track quality 100.0 %
Test CRC DD3BC3EB
Copy CRC DD3BC3EB
Track not present in AccurateRip database
Copy OK

Track 2

Filename C:\FLAC\Frank White – Weil die Straße nicht vergisst [Premium Edition – 2015]\02. Frank White – Schon von klein auf.wav

Pre-gap length 2:55:22.88

Peak level 98.4 %
Extraction speed 2.0 X
Track quality 100.0 %
Test CRC 101C887B
Copy CRC 101C887B
Track not present in AccurateRip database
Copy OK

Track 3

Filename C:\FLAC\Frank White – Weil die Straße nicht vergisst [Premium Edition – 2015]\03. Frank White – Rap wieder hart.wav

Pre-gap length 2:57:45.86

Peak level 98.8 %
Extraction speed 2.2 X
Track quality 100.0 %
Test CRC 8278AAA0
Copy CRC 8278AAA0
Track not present in AccurateRip database
Copy OK

Track 4

Filename C:\FLAC\Frank White – Weil die Straße nicht vergisst [Premium Edition – 2015]\04. Frank White – Ich häng auf den Straßen ab.wav

Peak level 98.4 %
Extraction speed 1.0 X
Track quality 100.0 %
Test CRC CAF4F1B8
Copy CRC CAF4F1B8
Track not present in AccurateRip database
Copy OK

Track 5

Filename C:\FLAC\Frank White – Weil die Straße nicht vergisst [Premium Edition – 2015]\05. Frank White – Zur selben Zeit (feat. Jalil).wav

Peak level 98.4 %
Extraction speed 2.5 X
Track quality 100.0 %
Test CRC 6AEDB581
Copy CRC 6AEDB581
Track not present in AccurateRip database
Copy OK

Track 6

Filename C:\FLAC\Frank White – Weil die Straße nicht vergisst [Premium Edition – 2015]\06. Frank White – So wie Frank.wav

Peak level 98.4 %
Extraction speed 2.6 X
Track quality 100.0 %
Test CRC EE10837D
Copy CRC EE10837D
Track not present in AccurateRip database
Copy OK

Track 7

Filename C:\FLAC\Frank White – Weil die Straße nicht vergisst [Premium Edition – 2015]\07. Frank White – Straßenstaub.wav

Pre-gap length 5:19:37.78

Peak level 98.4 %
Extraction speed 2.3 X
Track quality 99.9 %
Test CRC 1D10847F
Copy CRC 1D10847F
Track not present in AccurateRip database
Copy OK

Track 8

Filename C:\FLAC\Frank White – Weil die Straße nicht vergisst [Premium Edition – 2015]\08. Frank White – CCN Kinder.wav

Pre-gap length 1:50:21.61

Peak level 98.4 %
Extraction speed 1.0 X
Track quality 100.0 %
Test CRC 22570658
Copy CRC 22570658
Track not present in AccurateRip database
Copy OK

Track 9

Filename C:\FLAC\Frank White – Weil die Straße nicht vergisst [Premium Edition – 2015]\09. Frank White – HRSN Gesellschaft (feat. PA Sports).wav

Peak level 98.4 %
Extraction speed 3.0 X
Track quality 100.0 %
Test CRC F69EEA16
Copy CRC F69EEA16
Track not present in AccurateRip database
Copy OK

Track 10

Filename C:\FLAC\Frank White – Weil die Straße nicht vergisst [Premium Edition – 2015]\10. Frank White – Weil die Straße nicht vergisst.wav

Peak level 98.4 %
Extraction speed 3.1 X
Track quality 100.0 %
Test CRC 40D86F04
Copy CRC 40D86F04
Track not present in AccurateRip database
Copy OK

Track 11

Filename C:\FLAC\Frank White – Weil die Straße nicht vergisst [Premium Edition – 2015]\11. Frank White – Basstuning,Bordsteinfressen.wav

Peak level 98.4 %
Extraction speed 3.1 X
Track quality 100.0 %
Test CRC B32BD611
Copy CRC B32BD611
Track not present in AccurateRip database
Copy OK

Track 12

Filename C:\FLAC\Frank White – Weil die Straße nicht vergisst [Premium Edition – 2015]\12. Frank White – Alles was ich kenne.wav

Pre-gap length 1:40:24.41

Peak level 98.4 %
Extraction speed 3.2 X
Track quality 100.0 %
Test CRC 3153F847
Copy CRC 3153F847
Track not present in AccurateRip database
Copy OK

Track 13

Filename C:\FLAC\Frank White – Weil die Straße nicht vergisst [Premium Edition – 2015]\13. Frank White – Bild im Zement (feat. Kurdo).wav

Pre-gap length 6:39:38.26

Peak level 98.4 %
Extraction speed 1.0 X
Track quality 100.0 %
Test CRC F7218D2B
Copy CRC F7218D2B
Track not present in AccurateRip database
Copy OK

Track 14

Filename C:\FLAC\Frank White – Weil die Straße nicht vergisst [Premium Edition – 2015]\14. Frank White – Mit dem BMW 2 (feat. Shindy).wav

Pre-gap length 4:10:29.09

Peak level 98.4 %
Extraction speed 3.5 X
Track quality 100.0 %
Test CRC E50314B3
Copy CRC E50314B3
Track not present in AccurateRip database
Copy OK

Track 15

Filename C:\FLAC\Frank White – Weil die Straße nicht vergisst [Premium Edition – 2015]\15. Frank White – Pallas.wav

Peak level 98.4 %
Extraction speed 3.4 X
Track quality 100.0 %
Test CRC 31A56679
Copy CRC 31A56679
Track not present in AccurateRip database
Copy OK

Track 16

Filename C:\FLAC\Frank White – Weil die Straße nicht vergisst [Premium Edition – 2015]\16. Frank White – Pablo Escobar (feat. Jalil).wav

Pre-gap length 4:00:41.80

Peak level 98.4 %
Extraction speed 3.6 X
Track quality 100.0 %
Test CRC EA3B4028
Copy CRC EA3B4028
Track not present in AccurateRip database
Copy OK

None of the tracks are present in the AccurateRip database

No errors occurred

End of status report

—- CUETools DB Plugin V2.1.6

[CTDB TOCID: mgBKScGf7cN9zgvhyBxx8KNBhmw-] found
Submit result: mgBKScGf7cN9zgvhyBxx8KNBhmw- has been confirmed
Track | CTDB Status
1 | (1/1) Accurately ripped
2 | (1/1) Accurately ripped
3 | (1/1) Accurately ripped
4 | (1/1) Accurately ripped
5 | (1/1) Accurately ripped
6 | (1/1) Accurately ripped
7 | (1/1) Accurately ripped
8 | (1/1) Accurately ripped
9 | (1/1) Accurately ripped
10 | (1/1) Accurately ripped
11 | (1/1) Accurately ripped
12 | (1/1) Accurately ripped
13 | (1/1) Accurately ripped
14 | (1/1) Accurately ripped
15 | (1/1) Accurately ripped
16 | (1/1) Accurately ripped

==== Log checksum D4F6E0E3F73405B3371F44DDD348563D3E9211224B903247EA 1E56A7DE9D8537 ====

Cue:

REM GENRE Rap
REM DATE 2015
REM DISCID D40BBF10
REM COMMENT “ExactAudioCopy v1.1”
PERFORMER “Frank White”
TITLE “Weil die StraЯe nicht vergisst (Premium Edition)”
FILE “01. Frank White – Intro,Ich mach Realtalk.wav” WAVE
TRACK 01 AUDIO
TITLE “Intro/Ich mach Realtalk”
PERFORMER “Frank White”
INDEX 01 00:00:00
TRACK 02 AUDIO
TITLE “Schon von klein auf”
PERFORMER “Frank White”
INDEX 00 38:51:63
FILE “02. Frank White – Schon von klein auf.wav” WAVE
INDEX 01 00:00:00
TRACK 03 AUDIO
TITLE “Rap wieder hart”
PERFORMER “Frank White”
INDEX 00 36:09:52
FILE “03. Frank White – Rap wieder hart.wav” WAVE
INDEX 01 00:00:00
FILE “04. Frank White – Ich hдng auf den StraЯen ab.wav” WAVE
TRACK 04 AUDIO
TITLE “Ich hдng auf den StraЯen ab”
PERFORMER “Frank White”
INDEX 01 00:00:00
FILE “05. Frank White – Zur selben Zeit (feat. Jalil).wav” WAVE
TRACK 05 AUDIO
TITLE “Zur selben Zeit (feat. Jalil)”
PERFORMER “Frank White”
INDEX 01 00:00:00
FILE “06. Frank White – So wie Frank.wav” WAVE
TRACK 06 AUDIO
TITLE “So wie Frank”
PERFORMER “Frank White”
INDEX 01 00:00:00
TRACK 07 AUDIO
TITLE “StraЯenstaub”
PERFORMER “Frank White”
INDEX 00 94:24:72
FILE “07. Frank White – StraЯenstaub.wav” WAVE
INDEX 01 00:00:00
TRACK 08 AUDIO
TITLE “CCN Kinder”
PERFORMER “Frank White”
INDEX 00 03:42:47
FILE “08. Frank White – CCN Kinder.wav” WAVE
INDEX 01 00:00:00
FILE “09. Frank White – HRSN Gesellschaft (feat. PA Sports).wav” WAVE
TRACK 09 AUDIO
TITLE “HRSN Gesellschaft (feat. PA Sports)”
PERFORMER “Frank White”
INDEX 01 00:00:00
FILE “10. Frank White – Weil die StraЯe nicht vergisst.wav” WAVE
TRACK 10 AUDIO
TITLE “Weil die StraЯe nicht vergisst”
PERFORMER “Frank White”
INDEX 01 00:00:00
FILE “11. Frank White – Basstuning,Bordsteinfressen.wav” WAVE
TRACK 11 AUDIO
TITLE “Basstuning/Bordsteinfressen”
PERFORMER “Frank White”
INDEX 01 00:00:00
TRACK 12 AUDIO
TITLE “Alles was ich kenne”
PERFORMER “Frank White”
INDEX 00 13:33:01
FILE “12. Frank White – Alles was ich kenne.wav” WAVE
INDEX 01 00:00:00
TRACK 13 AUDIO
TITLE “Bild im Zement (feat. Kurdo)”
PERFORMER “Frank White”
INDEX 00 14:07:00
FILE “13. Frank White – Bild im Zement (feat. Kurdo).wav” WAVE
INDEX 01 00:00:00
TRACK 14 AUDIO
TITLE “Mit dem BMW 2 (feat. Shindy)”
PERFORMER “Frank White”
INDEX 00 63:36:29
FILE “14. Frank White – Mit dem BMW 2 (feat. Shindy).wav” WAVE
INDEX 01 00:00:00
FILE “15. Frank White – Pallas.wav” WAVE
TRACK 15 AUDIO
TITLE “Pallas”
PERFORMER “Frank White”
INDEX 01 00:00:00
TRACK 16 AUDIO
TITLE “Pablo Escobar (feat. Jalil)”
PERFORMER “Frank White”
INDEX 00 72:58:24
FILE “16. Frank White – Pablo Escobar (feat. Jalil).wav” WAVE
INDEX 01 00:00:00

DOWNLOAD






Share this