Tracklist:

1. Dance On A Volcano 5:53
2. Entangled 6:26
3. Squonk 6:27
4. Mad Man Moon 7:34
5. Robbery, Assault And Battery 6:17
6. Ripples 8:06
7. A Trick Of The Tail 4:34
8. Los Endos 5:47

Log:

Exact Audio Copy V1.0 beta 1 from 15. November 2010

EAC extraction logfile from 4. February 2011, 14:16

Genesis / A Trick Of The Tail (CDSCD 4001)

Used drive : TEAC DV-W516GDM Adapter: 0 ID: 1

Read mode : Secure
Utilize accurate stream : Yes
Defeat audio cache : Yes
Make use of C2 pointers : No

Read offset correction : 6
Overread into Lead-In and Lead-Out : No
Fill up missing offset samples with silence : Yes
Delete leading and trailing silent blocks : No
Null samples used in CRC calculations : Yes
Used interface : Native Win32 interface for Win NT & 2000

Used output format : User Defined Encoder
Selected bitrate : 896 kBit/s
Quality : High
Add ID3 tag : No
Command line compressor : C:\Program Files\Exact Audio Copy 1.0\Flac\flac.exe
Additional command line options : -8 -V %s

TOC of the extracted CD

Track | Start | Length | Start sector | End sector
———————————————————
1 | 0:00.00 | 5:53.67 | 0 | 26541
2 | 5:53.67 | 6:26.43 | 26542 | 55534
3 | 12:20.35 | 6:27.67 | 55535 | 84626
4 | 18:48.27 | 7:34.25 | 84627 | 118701
5 | 26:22.52 | 6:17.45 | 118702 | 147021
6 | 32:40.22 | 8:06.08 | 147022 | 183479
7 | 40:46.30 | 4:34.52 | 183480 | 204081
8 | 45:21.07 | 5:47.68 | 204082 | 230174

Range status and errors

Selected range

Filename C:\Olaf der Weisse\Genesis . 1976 . A Trick Of The Tail (CDSCD 4001)\Genesis – A Trick Of The Tail (CDSCD 4001).wav

Peak level 100.0 %
Extraction speed 0.1 X
Range quality 100.0 %
Test CRC 36B46BD6
Copy CRC 36B46BD6
Copy OK

No errors occurred

AccurateRip summary

Track 1 accurately ripped (confidence 5) [219629F0]
Track 2 accurately ripped (confidence 5) [08879289]
Track 3 accurately ripped (confidence 5) [3DE86DEC]
Track 4 accurately ripped (confidence 5) [36EDDA25]
Track 5 accurately ripped (confidence 5) [B3BAA84B]
Track 6 accurately ripped (confidence 5) [E28CF52B]
Track 7 accurately ripped (confidence 5) [E89ACAFF]
Track 8 accurately ripped (confidence 5) [A5BD34C7]

All tracks accurately ripped

End of status report

==== Log checksum 685D63988DA6543409CF12FE959E7518362EA0488C3A4D4884 CF624E7B32FAC4 ====

Cue:

REM GENRE “Progressive Rock”
REM DATE 1976
REM DISCID 650BFD08
REM COMMENT “ExactAudioCopy v1.0b1”
PERFORMER “Genesis”
TITLE “A Trick Of The Tail (CDSCD 4001)”
FILE “Genesis – A Trick Of The Tail (CDSCD 4001).flac” WAVE
TRACK 01 AUDIO
TITLE “Dance On A Volcano”
PERFORMER “Genesis”
INDEX 01 00:00:00
TRACK 02 AUDIO
TITLE “Entangled”
PERFORMER “Genesis”
INDEX 00 05:53:50
INDEX 01 05:53:67
TRACK 03 AUDIO
TITLE “Squonk”
PERFORMER “Genesis”
INDEX 00 12:20:32
INDEX 01 12:20:35
TRACK 04 AUDIO
TITLE “Mad Man Moon”
PERFORMER “Genesis”
INDEX 00 18:48:22
INDEX 01 18:48:27
TRACK 05 AUDIO
TITLE “Robbery, Assault And Battery”
PERFORMER “Genesis”
INDEX 00 26:21:72
INDEX 01 26:22:52
TRACK 06 AUDIO
TITLE “Ripples”
PERFORMER “Genesis”
INDEX 00 32:39:20
INDEX 01 32:40:22
TRACK 07 AUDIO
TITLE “A Trick Of The Tail”
PERFORMER “Genesis”
INDEX 00 40:45:17
INDEX 01 40:46:30
TRACK 08 AUDIO
TITLE “Los Endos”
PERFORMER “Genesis”
INDEX 00 45:21:05
INDEX 01 45:21:07

Format: FLAC
Bitrate: lossless
Größe: 304 MB

Download

Share-Online, Uploaded

Share-Links

http://s2l.biz/oxrc7uncszqr

Linkcrypt

http://linkcrypt.ws/dir/8rxp203865n4i8t

Nur 1x gepackt, kein Passwort, Mirror kompatibel






Share this