Der Turm
Der.Turm.2012.German.Xvid.AAC.TVRip.MP4-WoC

Beschreibung:

Der Film gibt im Wesentlichen die Handlung des Romans wieder, in dessen Mittelpunkt die Geschichte der Familie Hoffmann im Milieu des Dresdner Bildungsbürgertums in den Jahren 1982 bis 1989 steht.

Einige Details der Romanhandlung sind im Film weggelassen worden, wie die Affäre des Vaters Richard Hoffmann mit Christians Freundin Reina, stattdessen wird ausschließlich die Aufdeckung der früheren Stasi-Verstrickung als Auslöser des Bruchs zwischen Vater und Sohn in Szene gesetzt. Aus filmischen Gründen wurde ebenfalls vollständig auf die Tagebucheintragungen Meno Rohdes verzichtet.

Release Nfo:

Code:

General
Format                                  : MPEG-4
Format profile                          : Base Media
Codec ID                                : isom
File size                                : 528 MiB
Duration                                : 43mn 9s
Overall bit rate mode                    : Variable
Overall bit rate                        : 1 711 Kbps
Encoded date                            : UTC 2015-10-03 22:58:39
Tagged date                              : UTC 2015-10-03 22:58:39

Video
ID                                      : 1
Format                                  : AVC
Format/Info                              : Advanced Video Codec
Format profile                          : High@L3.2
Format settings, CABAC                  : Yes
Format settings, ReFrames                : 4 frames
Codec ID                                : avc1
Codec ID/Info                            : Advanced Video Coding
Duration                                : 43mn 9s
Bit rate                                : 1 525 Kbps
Maximum bit rate                        : 6 401 Kbps
Width                                    : 1 280 pixels
Height                                  : 720 pixels
Display aspect ratio                    : 16:9
Frame rate mode                          : Constant
Frame rate                              : 50.000 fps
Standard                                : PAL
Color space                              : YUV
Chroma subsampling                      : 4:2:0
Bit depth                                : 8 bits
Scan type                                : Progressive
Bits/(Pixel*Frame)                      : 0.033
Stream size                              : 471 MiB (89%)
Encoded date                            : UTC 2015-10-03 22:58:39
Tagged date                              : UTC 2015-10-03 22:58:49
Color range                              : Limited
Color primaries                          : BT.709
Transfer characteristics                : BT.709
Matrix coefficients                      : BT.709

Audio
ID                                      : 2
Format                                  : AAC
Format/Info                              : Advanced Audio Codec
Format profile                          : LC
Codec ID                                : 40
Duration                                : 43mn 8s
Bit rate mode                            : Variable
Bit rate                                : 179 Kbps
Maximum bit rate                        : 194 Kbps
Channel(s)                              : 2 channels
Channel positions                        : Front: L R
Sampling rate                            : 48.0 KHz
Compression mode                        : Lossy
Stream size                              : 55.3 MiB (10%)
Title                                    : /home/otr/otrmp4cut/public/Der_Turm_15.10.02_22-45_mdr_90_TVOON_DE.mpg.HD.aac – Imported with GPAC 0.4.6-DEV-rev
Encoded date                            : UTC 2015-10-03 22:58:47
Tagged date                              : UTC 2015-10-03 22:58:49

Genre: Action
Laufzeit: 155 min Min.
Sprache/n:
Video Stream: TV-RIP
Audio Stream: Stereo
Video Codec: MPEG-4 DivX / Xvid
Imdb-Link:

Download

Hoster: Uploaded.net, Share-online.biz | Größe: 528.1 MB | Parts: 6 Dateien
Uploaded.net

Share-online.biz






Share this