Mission.Impossible.Rogue.Nation.2015.German.AC3LD. DL.WEBHDRiP.XviD-XDD

Nachdem das Pentagon die Impossible Missions Force aufgelöst hat, ist Ethan Hunt (Tom Cruise) auf sich allein gestellt. Doch gerade jetzt hat der ehemalige IMF-Agent die Spur der geheimnisvollen und hochgefährlichen Organisation “Syndikat” aufgenommen, die sich schon bald als sein mächtigster Gegner erweisen soll. Aus dem Untergrund heraus operiert das “Syndikat” mit bestens ausgebildeten Spezialagenten und diese scheinen Hunt immer einen Schritt voraus zu sein – und ihre Mission ist teuflisch: Sie wollen durch gezielte Anschläge eine neue Weltordnung schaffen und alle ehemalige Mitglieder der IMF auslöschen, um ihre Pläne ungestört verwirklichen zu können. In offizieller Mission der Regierung oder nicht, Ethan Hunt kann nicht zusehen, wie der Terror immer weiter um sich greift, und reaktiviert sein einzigartiges Team: Techniker Benji Dunn (Simon Pegg), Computer-Hacker Luther Stickell (Ving Rhames) und Agent William Brandt (Jeremy Renner). Unerwartete Hilfe bekommt das Quartett von der geheimnisvollen Agentin Ilsa Faust (Rebecca Ferguson) – doch auf welcher Seite steht sie wirklich?

Genre: Action
Laufzeit: 132 Min.
Sprache/n: Deutsch, English
Video Stream: WEBHDRiP
Audio Stream: Line
Video Codec: MPEG-4 DivX / XviD
Format: AVI
Größe: 2350 MB
Parts: 3

NFO

Code:

Video: MPEG-4 Visual (XviD), 720×304, 23.976 fps, 1960 Kbps
Audio 1 Deutsch: AC-3 , 48.0 KHz, 2 channels, 192 Kbps
Audio 2 English: AC-3 , 48.0 KHz, 6 channels, 384 Kbps

MEDIAINFO

Code:

General
Complete name                            : XDDMI6WERBGDHSGDHDTYKFHFGBD/xdd-mi6-rog-webr-l1ne-dl.avi
Format                                  : AVI
Format/Info                              : Audio Video Interleave
Format profile                          : OpenDML
File size                                : 2.35 GiB
Duration                                : 02:11:47
Overall bit rate                        : 2 554 Kbps
Writing application                      : VirtualDubMod 1.5.10.2 (build 2540/release)
Writing library                          : VirtualDubMod build 2540/release

Video
ID                                      : 0
Format                                  : MPEG-4 Visual
Format profile                          : Advanced Simple@L5
Format settings, BVOP                    : 2
Format settings, QPel                    : No
Format settings, GMC                    : No warppoints
Format settings, Matrix                  : Default (MPEG)
Codec ID                                : XVID
Codec ID/Hint                            : XviD
Duration                                : 02:11:47
Bit rate                                : 1 960 Kbps
Width                                    : 720 pixels
Height                                  : 304 pixels
Display aspect ratio                    : 2.35:1
Frame rate                              : 23.976 fps
Color space                              : YUV
Chroma subsampling                      : 4:2:0
Bit depth                                : 8 bits
Scan type                                : Progressive
Compression mode                        : Lossy
Bits/(Pixel*Frame)                      : 0.374
Stream size                              : 1.81 GiB (77%)
Writing library                          : XviD 1.2.1 (UTC 2008-12-04)

Audio #1
ID                                      : 1
Format                                  : AC-3
Format/Info                              : Audio Coding 3
Mode extension                          : CM (complete main)
Format settings, Endianness              : Big
Codec ID                                : 2000
Duration                                : 02:11:47
Bit rate mode                            : Constant
Bit rate                                : 192 Kbps
Channel(s)                              : 2 channels
Channel positions                        : Front: L R
Sampling rate                            : 48.0 KHz
Bit depth                                : 16 bits
Compression mode                        : Lossy
Stream size                              : 181 MiB (8%)
Alignment                                : Split accross interleaves
Interleave, duration                    : 42 ms (1.00 video frame)
Interleave, preload duration            : 500 ms

Audio #2
ID                                      : 2
Format                                  : AC-3
Format/Info                              : Audio Coding 3
Mode extension                          : CM (complete main)
Format settings, Endianness              : Big
Codec ID                                : 2000
Duration                                : 02:11:47
Bit rate mode                            : Constant
Bit rate                                : 384 Kbps
Channel(s)                              : 6 channels
Channel positions                        : Front: L C R, Side: L R, LFE
Sampling rate                            : 48.0 KHz
Bit depth                                : 16 bits
Compression mode                        : Lossy
Stream size                              : 361 MiB (15%)
Alignment                                : Split accross interleaves
Interleave, duration                    : 42 ms (1.00 video frame)
Interleave, preload duration            : 500 ms

SAMPLE


Uploaded.net


Share-online.biz






Share this