Terminator.Genisys.2015.GERMAN.AC3D.5.1.BDRip.x264-XDD

Die Erde im Jahr 2029: John Connor, Anführer der Rebellion des menschlichen Widerstands, führt einen erbitterten Krieg gegen das übermächtige Maschinen-Imperium von Skynet. Um seine Mutter Sarah Connor vor einem Killer-Cyborg zu schützen und damit seine eigene Existenz sowie die Zukunft der Menschheit zu retten, schickt John seinen loyalen Freund und Mitstreiter Kyle Reese zurück ins Jahr 1984. Auf das, was ihn im Los Angeles der Vergangenheit erwartet, ist dieser jedoch nicht im Geringsten vorbereitet: Ein unvorhergesehenes Ereignis hat alles verändert und die Zeit, in die er von Connor zurückgeschickt wurde, existiert nicht mehr. Der Kampf zwischen Mensch und Maschine, Gut und Böse steht unaufhaltsam bevor – kann er mithilfe eines unverhofften Verbündeten den Tag der Abrechnung verhindern?

Genre: Action, Thriller
Laufzeit: 125 Min.
Sprache/n: Deutsch
Video Stream: BD-RIP
Audio Stream: Line [AC3D 5.1]
Video Codec: MPEG-4 H.264 / AVC
Format: AVI
Größe: 1850 MB
Parts: 3

NFO

Code:

Video: AVC, 1024×432, 23.976 fps, 1661 Kbps
Audio: AC-3 , 48.0 KHz, 6 channels, 448 Kbps

MEDIAINFO

Code:

General
Unique ID                                : 210999129558348291928794634807009910643 (0x9EBCF44582063016B2F2A9493C5C9F73)
Complete name                            : XDDTEX64HJFIHOJR58YHDJ89GHFGH/xdd-x264-ter-gen.mkv
Format                                  : Matroska
Format version                          : Version 4 / Version 2
File size                                : 1.85 GiB
Duration                                : 02:05:43
Overall bit rate                        : 2 109 Kbps
Movie name                              : Terminator.Genisys.2015.x264.BDRip.AVC
Encoded date                            : UTC 2015-10-05 09:08:40
Writing application                      : mkvmerge v7.0.0 (‘Where We Going’) 64bit built on Jun  9 2014 15:16:27
Writing library                          : libebml v1.3.0 + libmatroska v1.4.1
DURATION                                : 02:05:42.496000000
NUMBER_OF_FRAMES                        : 235703
NUMBER_OF_BYTES                          : 422379776
_STATISTICS_WRITING_APP                  : mkvmerge v7.0.0 (‘Where We Going’) 64bit built on Jun  9 2014 15:16:27
_STATISTICS_WRITING_DATE_UTC            : 2015-10-05 09:08:40
_STATISTICS_TAGS                        : BPS DURATION NUMBER_OF_FRAMES NUMBER_OF_BYTES

Video
ID                                      : 1
Format                                  : AVC
Format/Info                              : Advanced Video Codec
Format profile                          : High@L4.1
Format settings, CABAC                  : Yes
Format settings, ReFrames                : 13 frames
Codec ID                                : V_MPEG4/ISO/AVC
Duration                                : 02:05:43
Bit rate                                : 1 661 Kbps
Width                                    : 1 024 pixels
Height                                  : 432 pixels
Display aspect ratio                    : 2.40:1
Frame rate mode                          : Constant
Frame rate                              : 23.976 fps
Color space                              : YUV
Chroma subsampling                      : 4:2:0
Bit depth                                : 8 bits
Scan type                                : Progressive
Bits/(Pixel*Frame)                      : 0.157
Stream size                              : 1.42 GiB (77%)
Title                                    : Terminator.Genisys.2015.x264.BDRip.AVC
Writing library                          : x264 core 148 r2597 e86f3a1
Encoding settings                        : cabac=1 / ref=13 / deblock=1:-3:-3 / analyse=0x3:0x113 / me=umh / subme=10 / psy=1 / psy_rd=1.10:0.10 / mixed_ref=1 / me_range=48 / chroma_me=1 / trellis=2 / 8x8dct=1 / cqm=0 / deadzone=21,11 / fast_pskip=0 / chroma_qp_offset=-3 / threads=12 / lookahead_threads=2 / sliced_threads=0 / nr=0 / decimate=0 / interlaced=0 / bluray_compat=0 / constrained_intra=0 / bframes=8 / b_pyramid=2 / b_adapt=2 / b_bias=0 / direct=3 / weightb=1 / open_gop=1 / weightp=2 / keyint=240 / keyint_min=23 / scenecut=40 / intra_refresh=0 / rc=2pass / mbtree=0 / bitrate=1661 / ratetol=1.0 / qcomp=0.70 / qpmin=0 / qpmax=69 / qpstep=4 / cplxblur=20.0 / qblur=0.5 / ip_ratio=1.40 / pb_ratio=1.30 / aq=3:0.90
Language                                : English
Default                                  : Yes
Forced                                  : No
DURATION                                : 02:05:43.006000000
NUMBER_OF_FRAMES                        : 180851
NUMBER_OF_BYTES                          : 1564488071
_STATISTICS_WRITING_APP                  : mkvmerge v7.0.0 (‘Where We Going’) 64bit built on Jun  9 2014 15:16:27
_STATISTICS_WRITING_DATE_UTC            : 2015-10-05 09:08:40
_STATISTICS_TAGS                        : BPS DURATION NUMBER_OF_FRAMES NUMBER_OF_BYTES

Audio
ID                                      : 2
Format                                  : AC-3
Format/Info                              : Audio Coding 3
Mode extension                          : CM (complete main)
Format settings, Endianness              : Big
Codec ID                                : A_AC3
Duration                                : 02:05:43
Bit rate mode                            : Constant
Bit rate                                : 448 Kbps
Channel(s)                              : 6 channels
Channel positions                        : Front: L C R, Side: L R, LFE
Sampling rate                            : 48.0 KHz
Bit depth                                : 16 bits
Compression mode                        : Lossy
Stream size                              : 403 MiB (21%)
Title                                    : German AC3D 5.1
Language                                : German
Default                                  : Yes
Forced                                  : Yes

Text
ID                                      : 3
Format                                  : UTF-8
Codec ID                                : S_TEXT/UTF8
Codec ID/Info                            : UTF-8 Plain Text
Language                                : English
Default                                  : No
Forced                                  : No

Menu
00:00:00.000                            : en:00:00:00.000
00:07:40.334                            : en:00:07:40.334
00:14:20.734                            : en:00:14:20.734
00:20:31.563                            : en:00:20:31.563
00:27:48.416                            : en:00:27:48.416
00:34:54.801                            : en:00:34:54.801
00:41:02.626                            : en:00:41:02.626
00:46:28.786                            : en:00:46:28.786
00:53:05.515                            : en:00:53:05.515
01:01:00.239                            : en:01:01:00.239
01:08:22.556                            : en:01:08:22.556
01:14:43.812                            : en:01:14:43.812
01:21:31.261                            : en:01:21:31.261
01:31:01.706                            : en:01:31:01.706
01:38:42.750                            : en:01:38:42.750
01:45:41.084                            : en:01:45:41.084
01:52:48.970                            : en:01:52:48.970
01:58:00.114                            : en:01:58:00.114

SAMPLE


Uploaded.net


Share-online.biz






Share this