Minions.2015.German.AC3LD.WEBRiP.XViD-XDD

Im Verlauf der Erdgeschichte haben die Minions stets den schlimmsten Bösewichten gedient – auch wenn diese ihre Handlanger oft nicht überleben. Jahre schon darben die Minions, weil sie keinen neuen Meister finden. Also treten Kevin, Stuart und Bob im Jahr 1968 – oder 42 Jahre vor Gru – eine Reise um den halben Weltball an, um sich in Orlando auf der größten Messe für Schurken dem ersten weiblichen Superbösewicht anzuschließen – Scarlet Overkill. Die Dame ist allerdings nicht nur böse, sondern auch anspruchsvoll.

Gleich mit der ersten Marke gelang Illumination 2010 der große Wurf, “Ich – Einfach unverbesserlich”: Nun ist Zeit für das erste Spinoff mit den Publikumslieblingen Minions, die schon bisher stets die Lacher auf ihrer Seite hatten.

Genre: Animation
Sprache/n: Deutsch
Video: Webrip
Audio: Line
Codec: MPEG-4 DivX / Xvid
Größe: 700 MB
Parts: 1, 2

NFO

Code:

Video: MPEG-4 Visual (XviD), 720×384, 23.976 fps, 937 Kbps
Audio: AC-3 , 48.0 KHz, 2 channels, 128 Kbps

MEDIAINFO

Code:

General
Complete name                            : XDDMINWEJH890J5EYJFT90JJUYHS/xdd-web-min.avi
Format                                  : AVI
Format/Info                              : Audio Video Interleave
File size                                : 698 MiB
Duration                                : 01:30:53
Overall bit rate                        : 1 074 Kbps
Writing application                      : VirtualDubMod 1.5.10.2 (build 2540/release)
Writing library                          : VirtualDubMod build 2540/release

Video
ID                                      : 0
Format                                  : MPEG-4 Visual
Format profile                          : Advanced Simple@L5
Format settings, BVOP                    : 2
Format settings, QPel                    : No
Format settings, GMC                    : No warppoints
Format settings, Matrix                  : Default (MPEG)
Codec ID                                : XVID
Codec ID/Hint                            : XviD
Duration                                : 01:30:53
Bit rate                                : 937 Kbps
Width                                    : 720 pixels
Height                                  : 384 pixels
Display aspect ratio                    : 1.85:1
Frame rate                              : 23.976 fps
Color space                              : YUV
Chroma subsampling                      : 4:2:0
Bit depth                                : 8 bits
Scan type                                : Progressive
Compression mode                        : Lossy
Bits/(Pixel*Frame)                      : 0.141
Stream size                              : 609 MiB (87%)
Writing library                          : XviD 1.2.1 (UTC 2008-12-04)

Audio
ID                                      : 1
Format                                  : AC-3
Format/Info                              : Audio Coding 3
Mode extension                          : CM (complete main)
Format settings, Endianness              : Big
Codec ID                                : 2000
Duration                                : 01:30:53
Bit rate mode                            : Constant
Bit rate                                : 128 Kbps
Channel(s)                              : 2 channels
Channel positions                        : Front: L R
Sampling rate                            : 48.0 KHz
Bit depth                                : 16 bits
Compression mode                        : Lossy
Stream size                              : 83.2 MiB (12%)
Alignment                                : Split accross interleaves
Interleave, duration                    : 42 ms (1.00 video frame)
Interleave, preload duration            : 500 ms

SAMPLE


Uploaded.net (1 part)


Uploaded.net


Share-online.biz






Share this