Tracklist:

CD1

01. Arrival
02. Palm Trees, Helicopters And Gasoline
03. Jelly Roll
04. Dust Bowl
05. Around The Bend
06. Slow Train
07. Athens To Athens
08. From The Valley
09. The Ballad Of John Henry
10. Dislocated Boy
11. Dislocated Boy

CD2

01. High Water Everywhere
02. Jockey Full Of Bourbon
03. Richmond
04. Stones In My Passway
05. Ball Peen Hammer
06. Black Lung Heartache
07. Mountain Time
08. Woke Up Dreaming
09. Sloe Gin
10. Seagull

Log:

CD 1:

Exact Audio Copy V0.99 prebeta 5 from 4. May 2009

Îò÷¸ò EAC îá èçâëå÷åíèè, âûïîëíåííîì 21. ìàðòà 2013, 20:17

Joe Bonamassa / An Acoustic Evening at The Vienna Opera House (Disc 1)

Äèñêîâîä: PLEXTOR DVDR PX-880SA Adapter: 1 ID: 0

Ðåæèì ÷òåíèÿ : Äîñòîâåðíîñòü
Èñïîëüçîâàíèå òî÷íîãî ïîòîêà : Äà
Îòêëþ÷åíèå êýøà àóäèî : Äà
Èñïîëüçîâàíèå óêàçàòåëåé C2 : Íåò

Êîððåêöèÿ ñìåùåíèÿ ïðè ÷òåíèè : 6
Ñïîñîáíîñòü ÷èòàòü îáëàñòè Lead-in è Lead-out : Íåò
Çàïîëíåíèå ïðîïóùåííûõ ñýìïëîâ òèøèíîé : Äà
Óäàëåíèå áëîêîâ ñ òèøèíîé â íà÷àëå è êîíöå : Íåò
Ïðè âû÷èñëåíèÿõ CRC èñïîëüçîâàëèñü íóëåâûå ñýìïëû : Äà
Èíòåðôåéñ : Óñòàíîâëåííûé âíåøíèé ASPI-èíòåðôåéñ

Âûõîäíîé ôîðìàò : Ïîëüçîâàòåëüñêèé êîäèðîâùèê
Âûáðàííûé áèòðåéò : 1024 kBit/s
Êà÷åñòâî : Âûñîêèé
Äîáàâëåíèå ID3-òýãà : Íåò
Óòèëèòà ñæàòèÿ : C:\Program Files\Exact Audio Copy\FLAC\FLAC.EXE
Äîïîëíèòåëüíûå ïàðàìåòðû : -10 -V -T “ARTIST=%a” -T “TITLE=%t” -T “ALBUM=%g” -T “DATE=%y” -T “TRACKNUMBER=%n” -T “GENRE=%m” -T “COMMENT=%e” %s -o %d

TOC èçâëå÷¸ííîãî CD

Òðåê | Ñòàðò | Äëèòåëüíîñòü | Íà÷àëüíûé ñåêòîð | Êîíå÷íûé ñåêòîð
———————————————————————
1 | 0:00.00 | 2:05.06 | 0 | 9380
2 | 2:05.06 | 2:17.20 | 9381 | 19675
3 | 4:22.26 | 2:41.11 | 19676 | 31761
4 | 7:03.37 | 5:17.10 | 31762 | 55546
5 | 12:20.47 | 6:05.35 | 55547 | 82956
6 | 18:26.07 | 6:37.12 | 82957 | 112743
7 | 25:03.19 | 5:45.06 | 112744 | 138624
8 | 30:48.25 | 2:20.13 | 138625 | 149137
9 | 33:08.38 | 7:18.15 | 149138 | 182002
10 | 40:26.53 | 5:55.17 | 182003 | 208644
11 | 46:21.70 | 5:16.44 | 208645 | 232388

Õàðàêòåðèñòèêè äèàïàçîíà èçâëå÷åíèÿ è ñîîáùåíèÿ îá îøèáêàõ

Âûáðàííûé äèàïàçîí

Èìÿ ôàéëà D:\BitComet\Joe Bonamassa – An Acoustic Evening at the Vienna Opera House(2013)(flac)\Disc 1\Joe Bonamassa – An Acoustic Evening at The Vienna Opera House (Disc 1).wav

Ïèêîâûé óðîâåíü 99.3 %
Êà÷åñòâî äèàïàçîíà 100.0 %
CRC òåñòà 46EAE123
CRC êîïèè 46EAE123
Êîïèðîâàíèå… OK

Îøèáîê íå ïðîèçîøëî

AccurateRip: ñâîäêà

Òðåê 1 íåò â áàçå äàííûõ
Òðåê 2 íåò â áàçå äàííûõ
Òðåê 3 íåò â áàçå äàííûõ
Òðåê 4 íåò â áàçå äàííûõ
Òðåê 5 íåò â áàçå äàííûõ
Òðåê 6 íåò â áàçå äàííûõ
Òðåê 7 íåò â áàçå äàííûõ
Òðåê 8 íåò â áàçå äàííûõ
Òðåê 9 íåò â áàçå äàííûõ
Òðåê 10 íåò â áàçå äàííûõ
Òðåê 11 íåò â áàçå äàííûõ

Íè îäíîãî òðåêà íåò â áàçå AccurateRip

Êîíåö îò÷¸òà

CD 2:

Exact Audio Copy V0.99 prebeta 5 from 4. May 2009

Îò÷¸ò EAC îá èçâëå÷åíèè, âûïîëíåííîì 21. ìàðòà 2013, 20:46

Joe Bonamassa / An Acoustic Evening at The Vienna Opera House (Disc 2)

Äèñêîâîä: PLEXTOR DVDR PX-880SA Adapter: 1 ID: 0

Ðåæèì ÷òåíèÿ : Äîñòîâåðíîñòü
Èñïîëüçîâàíèå òî÷íîãî ïîòîêà : Äà
Îòêëþ÷åíèå êýøà àóäèî : Äà
Èñïîëüçîâàíèå óêàçàòåëåé C2 : Íåò

Êîððåêöèÿ ñìåùåíèÿ ïðè ÷òåíèè : 6
Ñïîñîáíîñòü ÷èòàòü îáëàñòè Lead-in è Lead-out : Íåò
Çàïîëíåíèå ïðîïóùåííûõ ñýìïëîâ òèøèíîé : Äà
Óäàëåíèå áëîêîâ ñ òèøèíîé â íà÷àëå è êîíöå : Íåò
Ïðè âû÷èñëåíèÿõ CRC èñïîëüçîâàëèñü íóëåâûå ñýìïëû : Äà
Èíòåðôåéñ : Óñòàíîâëåííûé âíåøíèé ASPI-èíòåðôåéñ

Âûõîäíîé ôîðìàò : Ïîëüçîâàòåëüñêèé êîäèðîâùèê
Âûáðàííûé áèòðåéò : 1024 kBit/s
Êà÷åñòâî : Âûñîêèé
Äîáàâëåíèå ID3-òýãà : Íåò
Óòèëèòà ñæàòèÿ : C:\Program Files\Exact Audio Copy\FLAC\FLAC.EXE
Äîïîëíèòåëüíûå ïàðàìåòðû : -10 -V -T “ARTIST=%a” -T “TITLE=%t” -T “ALBUM=%g” -T “DATE=%y” -T “TRACKNUMBER=%n” -T “GENRE=%m” -T “COMMENT=%e” %s -o %d

TOC èçâëå÷¸ííîãî CD

Òðåê | Ñòàðò | Äëèòåëüíîñòü | Íà÷àëüíûé ñåêòîð | Êîíå÷íûé ñåêòîð
———————————————————————
1 | 0:00.00 | 4:36.38 | 0 | 20737
2 | 4:36.38 | 5:26.74 | 20738 | 45261
3 | 10:03.37 | 5:07.71 | 45262 | 68357
4 | 15:11.33 | 4:03.38 | 68358 | 86620
5 | 19:14.71 | 3:34.47 | 86621 | 102717
6 | 22:49.43 | 3:56.55 | 102718 | 120472
7 | 26:46.23 | 3:33.21 | 120473 | 136468
8 | 30:19.44 | 5:35.73 | 136469 | 161666
9 | 35:55.42 | 7:16.46 | 161667 | 194412
10 | 43:12.13 | 6:16.05 | 194413 | 222617

Õàðàêòåðèñòèêè äèàïàçîíà èçâëå÷åíèÿ è ñîîáùåíèÿ îá îøèáêàõ

Âûáðàííûé äèàïàçîí

Èìÿ ôàéëà D:\BitComet\Joe Bonamassa – An Acoustic Evening at the Vienna Opera House(2013)(flac)\Disc 2\Joe Bonamassa – An Acoustic Evening at The Vienna Opera House (Disc 2).wav

Ïèêîâûé óðîâåíü 99.4 %
Êà÷åñòâî äèàïàçîíà 100.0 %
CRC òåñòà E8F70CA1
CRC êîïèè E8F70CA1
Êîïèðîâàíèå… OK

Îøèáîê íå ïðîèçîøëî

AccurateRip: ñâîäêà

Òðåê 1 íåò â áàçå äàííûõ
Òðåê 2 íåò â áàçå äàííûõ
Òðåê 3 íåò â áàçå äàííûõ
Òðåê 4 íåò â áàçå äàííûõ
Òðåê 5 íåò â áàçå äàííûõ
Òðåê 6 íåò â áàçå äàííûõ
Òðåê 7 íåò â áàçå äàííûõ
Òðåê 8 íåò â áàçå äàííûõ
Òðåê 9 íåò â áàçå äàííûõ
Òðåê 10 íåò â áàçå äàííûõ

Íè îäíîãî òðåêà íåò â áàçå AccurateRip

Êîíåö îò÷¸òà

Cue:

CD 1:

REM GENRE Blues
REM DATE 2013
REM DISCID 8A0C1A0B
REM COMMENT ExactAudioCopy v0.99pb5
PERFORMER “Joe Bonamassa”
TITLE “An Acoustic Evening at The Vienna Opera House (Disc 1)”
FILE “01 – Arrival.flac” WAVE
TRACK 01 AUDIO
TITLE “Arrival”
INDEX 01 00:00:00
FILE “02 – Palm Trees, Helicopters And Gasoline.flac” WAVE
TRACK 02 AUDIO
TITLE “Palm Trees, Helicopters And Gasoline”
INDEX 01 00:00:00
FILE “03 – Jelly Roll.flac” WAVE
TRACK 03 AUDIO
TITLE “Jelly Roll”
INDEX 01 00:00:00
FILE “04 – Dust Bowl.flac” WAVE
TRACK 04 AUDIO
TITLE “Dust Bowl”
INDEX 01 00:00:00
FILE “05 – Around The Bend.flac” WAVE
TRACK 05 AUDIO
TITLE “Around The Bend”
INDEX 01 00:00:00
FILE “06 – Slow Train.flac” WAVE
TRACK 06 AUDIO
TITLE “Slow Train”
INDEX 01 00:00:00
FILE “07 – Athens To Athens.flac” WAVE
TRACK 07 AUDIO
TITLE “Athens To Athens”
INDEX 01 00:00:00
FILE “08 – From The Valley.flac” WAVE
TRACK 08 AUDIO
TITLE “From The Valley”
INDEX 01 00:00:00
FILE “09 – The Ballad Of John Henry.flac” WAVE
TRACK 09 AUDIO
TITLE “The Ballad Of John Henry”
INDEX 01 00:00:00
FILE “10 – Dislocated Boy.flac” WAVE
TRACK 10 AUDIO
TITLE “Dislocated Boy”
INDEX 01 00:00:00
FILE “11 – Dislocated Boy.flac” WAVE
TRACK 11 AUDIO
TITLE “Dislocated Boy”
INDEX 01 00:00:00

CD 2:

REM GENRE Blues
REM DATE 2013
REM DISCID 820B980A
REM COMMENT ExactAudioCopy v0.99pb5
PERFORMER “Joe Bonamassa”
TITLE “An Acoustic Evening at The Vienna Opera House (Disc 2)”
FILE “01 – High Water Everywhere.flac” WAVE
TRACK 01 AUDIO
TITLE “High Water Everywhere”
INDEX 01 00:00:00
FILE “02 – Jockey Full Of Bourbon.flac” WAVE
TRACK 02 AUDIO
TITLE “Jockey Full Of Bourbon”
INDEX 01 00:00:00
FILE “03 – Richmond.flac” WAVE
TRACK 03 AUDIO
TITLE “Richmond”
INDEX 01 00:00:00
FILE “04 – Stones In My Passway.flac” WAVE
TRACK 04 AUDIO
TITLE “Stones In My Passway”
INDEX 01 00:00:00
FILE “05 – Ball Peen Hammer.flac” WAVE
TRACK 05 AUDIO
TITLE “Ball Peen Hammer”
INDEX 01 00:00:00
FILE “06 – Black Lung Heartache.flac” WAVE
TRACK 06 AUDIO
TITLE “Black Lung Heartache”
INDEX 01 00:00:00
FILE “07 – Mountain Time.flac” WAVE
TRACK 07 AUDIO
TITLE “Mountain Time”
INDEX 01 00:00:00
FILE “08 – Woke Up Dreaming.flac” WAVE
TRACK 08 AUDIO
TITLE “Woke Up Dreaming”
INDEX 01 00:00:00
FILE “09 – Sloe Gin.flac” WAVE
TRACK 09 AUDIO
TITLE “Sloe Gin”
INDEX 01 00:00:00
FILE “10 – Seagull.flac” WAVE
TRACK 10 AUDIO
TITLE “Seagull”
INDEX 01 00:00:00

Format: FLAC
Bitrate: lossless
Größe: 655 MB

Download

Share-Online, Uploaded

http://www.relink.us/f/b794ef6f4dd66677b571913bf3ff40

Nur 1x gepackt, kein Passwort, Mirror kompatibel






Share this