Tracklist:

01. All I Wanna Do 04:33
02. Soak Up The Sun 04:52
03. My Favorite Mistake 04:06
04. The First Cut Is The Deepest 03:45
05. Everyday Is A Winding Road 04:16
06. Leaving Las Vegas 05:10
07. Strong Enough 03:10
08. Light In Your Eyes 04:02
09. If It Makes You Happy 05:23
10. Run, Baby, Run 04:53
11. Picture (Kid Rock Featuring Sheryl Crow) 04:58
12. C’mon, C’mon (Featuring The Corrs) 04:26
13. A Change Would Do You Good 03:50
14. Home 04:51
15. There Goes The Neighborhood 05:02
16. I Shall Believe 05:34
17. Let’s Get Free(bonus track) 04:35

Log:

Exact Audio Copy V0.99 prebeta 5 from 4. May 2009

EAC extraction logfile from 3. October 2010, 19:35

Shery Crow / The Very Best Of Sheryl

Used drive : TSSTcorpCDDVDW SH-S202J Adapter: 1 ID: 1

Read mode : Secure
Utilize accurate stream : Yes
Defeat audio cache : Yes
Make use of C2 pointers : No

Read offset correction : 6
Overread into Lead-In and Lead-Out : No
Fill up missing offset samples with silence : Yes
Delete leading and trailing silent blocks : No
Null samples used in CRC calculations : Yes
Used interface : Native Win32 interface for Win NT & 2000

Used output format : Internal WAV Routines
Sample format : 44.100 Hz; 16 Bit; Stereo

TOC of the extracted CD

Track | Start | Length | Start sector | End sector
———————————————————
1 | 0:00.00 | 4:34.00 | 0 | 20549
2 | 4:34.00 | 4:52.45 | 20550 | 42494
3 | 9:26.45 | 4:07.07 | 42495 | 61026
4 | 13:33.52 | 3:47.28 | 61027 | 78079
5 | 17:21.05 | 4:17.70 | 78080 | 97424
6 | 21:39.00 | 5:10.30 | 97425 | 120704
7 | 26:49.30 | 3:12.12 | 120705 | 135116
8 | 30:01.42 | 4:01.68 | 135117 | 153259
9 | 34:03.35 | 5:25.27 | 153260 | 177661
10 | 39:28.62 | 4:54.33 | 177662 | 199744
11 | 44:23.20 | 4:58.52 | 199745 | 222146
12 | 49:21.72 | 4:25.18 | 222147 | 242039
13 | 53:47.15 | 3:51.17 | 242040 | 259381
14 | 57:38.32 | 4:51.55 | 259382 | 281261
15 | 62:30.12 | 5:04.60 | 281262 | 304121
16 | 67:34.72 | 5:38.05 | 304122 | 329476
17 | 73:13.02 | 4:39.23 | 329477 | 350424

Range status and errors

Selected range

Filename E:\ÐÎÇÄÀ×À\Shery Crow – The Very Best Of Sheryl.wav

Peak level 100.0 %
Range quality 100.0 %
Test CRC 4AD64CEB
Copy CRC 4AD64CEB
Copy OK

No errors occurred

AccurateRip summary

Track 1 accurately ripped (confidence 22) [47198BA9]
Track 2 accurately ripped (confidence 22) [FAE718C8]
Track 3 accurately ripped (confidence 22) [E7BED1ED]
Track 4 accurately ripped (confidence 22) [9FB4ACF2]
Track 5 accurately ripped (confidence 22) [48E390D3]
Track 6 accurately ripped (confidence 22) [6BFC3BCB]
Track 7 accurately ripped (confidence 22) [C23A0C68]
Track 8 accurately ripped (confidence 22) [F3E3B76B]
Track 9 accurately ripped (confidence 21) [99E449C8]
Track 10 accurately ripped (confidence 21) [D92FF50D]
Track 11 accurately ripped (confidence 21) [6C2B28ED]
Track 12 accurately ripped (confidence 22) [9259F7B4]
Track 13 accurately ripped (confidence 21) [1BF34431]
Track 14 accurately ripped (confidence 22) [62528D05]
Track 15 accurately ripped (confidence 22) [0543C693]
Track 16 accurately ripped (confidence 22) [B3D143EC]
Track 17 accurately ripped (confidence 22) [3AD1CA06]

All tracks accurately ripped

End of status report

Cue:

REM DATE 2003
REM DISCID E4124011
REM COMMENT “ExactAudioCopy v0.99pb5”
PERFORMER “Shery Crow “
TITLE “The Very Best Of Sheryl”
FILE “Shery Crow – The Very Best Of Sheryl.wav” WAVE
TRACK 01 AUDIO
TITLE “01. All I Wanna Do “
PERFORMER “Shery Crow “
INDEX 01 00:00:00
TRACK 02 AUDIO
TITLE “02. Soak Up The Sun”
PERFORMER “Shery Crow “
INDEX 00 04:32:65
INDEX 01 04:34:00
TRACK 03 AUDIO
TITLE “03. My Favorite Mistake “
PERFORMER “Shery Crow “
INDEX 00 09:25:65
INDEX 01 09:26:45
TRACK 04 AUDIO
TITLE “04. The First Cut Is The Deepest “
PERFORMER “Shery Crow “
INDEX 00 13:33:45
INDEX 01 13:33:52
TRACK 05 AUDIO
TITLE “05. Everyday Is A Winding Road”
PERFORMER “Shery Crow “
INDEX 00 17:20:40
INDEX 01 17:21:05
TRACK 06 AUDIO
TITLE “06. Leaving Las Vegas”
PERFORMER “Shery Crow “
INDEX 00 21:38:37
INDEX 01 21:39:00
TRACK 07 AUDIO
TITLE “07. Strong Enough”
PERFORMER “Shery Crow “
INDEX 00 26:49:22
INDEX 01 26:49:30
TRACK 08 AUDIO
TITLE “08. Light In Your Eyes”
PERFORMER “Shery Crow “
INDEX 00 29:59:70
INDEX 01 30:01:42
TRACK 09 AUDIO
TITLE “09. If It Makes You Happy”
PERFORMER “Shery Crow “
INDEX 00 34:02:07
INDEX 01 34:03:35
TRACK 10 AUDIO
TITLE “10. Run, Baby, Run”
PERFORMER “Shery Crow “
INDEX 00 39:27:05
INDEX 01 39:28:62
TRACK 11 AUDIO
TITLE “11. Picture”
PERFORMER “Shery Crow “
INDEX 00 44:21:67
INDEX 01 44:23:20
TRACK 12 AUDIO
TITLE “12. C’mon, C’mon “
PERFORMER “Shery Crow “
INDEX 01 49:21:72
TRACK 13 AUDIO
TITLE “13. A Change Would Do You Good”
PERFORMER “Shery Crow “
INDEX 00 53:46:17
INDEX 01 53:47:15
TRACK 14 AUDIO
TITLE “14. Home”
PERFORMER “Shery Crow “
INDEX 00 57:37:17
INDEX 01 57:38:32
TRACK 15 AUDIO
TITLE “15. There Goes The Neighborhood”
PERFORMER “Shery Crow “
INDEX 00 62:29:37
INDEX 01 62:30:12
TRACK 16 AUDIO
TITLE “16. I Shall Believe”
PERFORMER “Shery Crow “
INDEX 00 67:32:20
INDEX 01 67:34:72
TRACK 17 AUDIO
TITLE “17. Let’s Get Free”
PERFORMER “Shery Crow “
INDEX 00 73:08:60
INDEX 01 73:13:02

Format: FLAC
Bitrate: lossless
Größe: 523 MB

Download

Share-Online, Uploaded

http://www.relink.us/f/4c96aeca678e704d3359c78ab6249b

Nur 1x gepackt, kein Passwort, Mirror kompatibel






Share this