Beasts.of.No.Nation.2015.German.AC3.NETFLiX.HDRip. x264-XDD

Der junge Agu sieht sich, als der Bürgerkrieg in West Afrika ausbricht, gezwungen Mitglied einer Gruppe von Söldnern beizutreten. Nachdem seine Familie auseinander gerissen und sein Vater ermordet wurde, verschwinden auch noch seine Mutter sowie seine Schwester. Er sieht sich zunehmend mit Gewalt und Brutalität konfrontiert und merkt schnell, dass ihm nichts anderes übrig bleibt als ebenso aggressiv zu werden, wenn er den Krieg überleben will. Bald empfindet Agu eine besondere Faszination für das Töten und findet in dem Commander (Idris Elba) eine Art Mentor. Zudm freundet er sich schnell mit dem stummen Strika an und gemeinsam stellen sie sich nicht nur den Verbrechen, sondern auch den Leiden, die der Krieg mit sich bringt.

Genre: Drama
Laufzeit: 136 Min.
Sprache/n: Deutsch
Video Stream: HD-RIP
Audio Stream: Dolby Digital 5.1
Video Codec: MPEG-4 H.264 / AVC
Format: MKV
Größe: 1670 MB
Parts: 2

NFO

Code:

Video: AVC, 1024×432, 23.976 fps, 1304 Kbps
Audio: AC-3 , 48.0 KHz, 6 channels, 448 Kbps

MEDIAINFO

Code:

General
Unique ID                                : 235486145647822988232280529913289699290 (0xB128FB605D2DB6229D97963AB8A0EFDA)
Complete name                            : XDDBONNDHJDKHGSIOGHASGHZGKH/xdd-bonn-x264.mkv
Format                                  : Matroska
Format version                          : Version 2
File size                                : 1.67 GiB
Duration                                : 02:16:32
Overall bit rate                        : 1 753 Kbps
Movie name                              : Beasts of No Nation (2015)
Encoded date                            : UTC 2015-10-24 12:00:35
Writing application                      : mkvmerge v4.0.0 (‘The Stars were mine’) Jun  6 2010 16:18:42
Writing library                          : libebml v1.0.0 + libmatroska v1.0.0
Attachements                            : cover.jpg

Video
ID                                      : 1
Format                                  : AVC
Format/Info                              : Advanced Video Codec
Format profile                          : High@L4.1
Format settings, CABAC                  : Yes
Format settings, ReFrames                : 12 frames
Codec ID                                : V_MPEG4/ISO/AVC
Duration                                : 02:16:32
Bit rate                                : 1 304 Kbps
Width                                    : 1 024 pixels
Height                                  : 432 pixels
Display aspect ratio                    : 2.40:1
Frame rate mode                          : Constant
Frame rate                              : 23.976 fps
Color space                              : YUV
Chroma subsampling                      : 4:2:0
Bit depth                                : 8 bits
Scan type                                : Progressive
Bits/(Pixel*Frame)                      : 0.123
Stream size                              : 1.21 GiB (72%)
Writing library                          : x264 core 142 r2431 ac76440
Encoding settings                        : cabac=1 / ref=12 / deblock=1:-2:-2 / analyse=0x3:0x113 / me=umh / subme=11 / psy=1 / psy_rd=1.00:0.03 / mixed_ref=1 / me_range=48 / chroma_me=1 / trellis=2 / 8x8dct=1 / cqm=0 / deadzone=21,11 / fast_pskip=1 / chroma_qp_offset=-6 / threads=12 / lookahead_threads=3 / sliced_threads=0 / nr=0 / decimate=1 / interlaced=0 / bluray_compat=0 / constrained_intra=0 / bframes=13 / b_pyramid=2 / b_adapt=2 / b_bias=0 / direct=1 / weightb=1 / open_gop=0 / weightp=2 / keyint=240 / keyint_min=22 / scenecut=40 / intra_refresh=0 / rc_lookahead=60 / rc=2pass / mbtree=1 / bitrate=1304 / ratetol=1.0 / qcomp=0.70 / qpmin=0 / qpmax=69 / qpstep=4 / cplxblur=20.0 / qblur=0.5 / vbv_maxrate=14000 / vbv_bufsize=14000 / nal_hrd=none / filler=0 / ip_ratio=1.40 / aq=1:0.80
Language                                : English
Default                                  : No
Forced                                  : No

Audio
ID                                      : 2
Format                                  : AC-3
Format/Info                              : Audio Coding 3
Mode extension                          : CM (complete main)
Format settings, Endianness              : Big
Codec ID                                : A_AC3
Duration                                : 02:16:32
Bit rate mode                            : Constant
Bit rate                                : 448 Kbps
Channel(s)                              : 6 channels
Channel positions                        : Front: L C R, Side: L R, LFE
Sampling rate                            : 48.0 KHz
Bit depth                                : 16 bits
Compression mode                        : Lossy
Stream size                              : 438 MiB (26%)
Title                                    : German
Language                                : German
Default                                  : Yes
Forced                                  : Yes

SAMPLE


Uploaded.net


Share-online.biz






Share this