Tracklist:

CD 1:

01. I Want You Back (02:59)
02. ABC (02:58)
03. I’ll Be There (03:58)
04. Got To Be There (03:23)
05. I Wanna Be Where You Are (02:57)
06. Ben (02:45)
07. Dancing Machine (Single Version) (02:37)
08. Enjoy Yourself (03:40)
09. Ease On Down The Road (03:19)
10. You Can’t Win (From ‘The Wiz’) (07:18)
11. Shake A Body (Early Demo) (02:08)
12. Shake Your Body (Down To The Ground) (03:45)
13. Don’t Stop ‘Til You Get Enough (06:03)
14. Rock With You (03:40)
15. Off The Wall (04:06)
16. She’s Out Of My Life (03:38)
17. Sunset Driver (Demo) (04:03)
18. Lovely One (04:49)
19. This Place Hotel (05:44)

CD 2:

01. Wanna Be Startin’ Somethin’ (06:03)
02. The Girl Is Mine (03:41)
03. Thriller (05:58)
04. Beat It (04:19)
05. Billie Jean (04:53)
06. P.Y.T. (Pretty Young Thing) (Demo) (03:47)
07. Someone In The Dark (04:55)
08. State Of Shock (04:30)
09. Scared Of The Moon (Demo) (04:42)
10. We Are The World (Demo) (05:20)
11. We Are Here To Change The World (From ‘Captain EO’) (02:53)

CD 3:

01. Bad (04:08)
02. The Way You Make Me Feel (04:58)
03. Man In The Mirror (05:19)
04. I Just Can’t Stop Loving You (04:13)
05. Dirty Diana (04:41)
06. Smooth Criminal (04:18)
07. Cheater (Demo) (05:09)
08. Dangerous (Early Version) (06:40)
09. Monkey Business (05:45)
10. Jam (05:40)
11. Remember The Time (04:00)
12. Black Or White (04:17)
13. Who It Is (IHS Mix) (07:57)
14. Someone Put Your Hand Out (05:25)

CD 4:

01. You Are Not Alone (06:02)
02. Stranger In Moscow (05:45)
03. Childhood (Theme From ‘Free Willy 2′) (04:28)
04. On The Line (04:53)
05. Blood On The Dance Floor (04:13)
06. Fall Again (Demo) (04:23)
07. In The Back (04:31)
08. Unbreakable (06:26)
09. You Rock My World (05:09)
10. Butterflies (04:40)
11. Beautiful Girl (Demo) (04:04)
12. The Way You Love Me (04:30)
13. We’ve Had Enough (05:45)

Log:

CD 1:

Exact Audio Copy V1.0 beta 1 from 15. November 2010

EAC extraction logfile from 8. May 2011, 23:32

Michael Jackson / The Ultimate Collection (Disc One)

Used drive : PIONEER DVD-RW DVR-218L Adapter: 2 ID: 1

Read mode : Secure
Utilize accurate stream : Yes
Defeat audio cache : Yes
Make use of C2 pointers : No

Read offset correction : 6
Overread into Lead-In and Lead-Out : No
Fill up missing offset samples with silence : Yes
Delete leading and trailing silent blocks : No
Null samples used in CRC calculations : Yes
Used interface : Installed external ASPI interface
Gap handling : Appended to previous track

Used output format : User Defined Encoder
Selected bitrate : 128 kBit/s
Quality : High
Add ID3 tag : No
Command line compressor : C:\Program Files\Exact Audio Copy\Flac\flac.exe
Additional command line options : -8 -V -T “ARTIST=%a” -T “TITLE=%t” -T “ALBUM=%g” -T “DATE=%y” -T “TRACKNUMBER=%n” -T “GENRE=%m” -T “COMMENT=ripped by serginho199” %s

TOC of the extracted CD

Track | Start | Length | Start sector | End sector
———————————————————
1 | 0:00.00 | 2:59.52 | 0 | 13476
2 | 2:59.52 | 2:58.22 | 13477 | 26848
3 | 5:57.74 | 3:58.33 | 26849 | 44731
4 | 9:56.32 | 3:23.20 | 44732 | 59976
5 | 13:19.52 | 2:57.39 | 59977 | 73290
6 | 16:17.16 | 2:45.18 | 73291 | 85683
7 | 19:02.34 | 2:37.55 | 85684 | 97513
8 | 21:40.14 | 3:40.64 | 97514 | 114077
9 | 25:21.03 | 3:19.62 | 114078 | 129064
10 | 28:40.65 | 7:18.05 | 129065 | 161919
11 | 35:58.70 | 2:08.30 | 161920 | 171549
12 | 38:07.25 | 3:45.67 | 171550 | 188491
13 | 41:53.17 | 6:03.71 | 188492 | 215787
14 | 47:57.13 | 3:40.62 | 215788 | 232349
15 | 51:38.00 | 4:06.25 | 232350 | 250824
16 | 55:44.25 | 3:38.22 | 250825 | 267196
17 | 59:22.47 | 4:03.56 | 267197 | 285477
18 | 63:26.28 | 4:49.71 | 285478 | 307223
19 | 68:16.24 | 5:44.07 | 307224 | 333030

Track 1

Filename E:\My Rips\Michael Jackson – The Ultimate Collection (2004)\1-01. Michael Jackson – I Want You Back.wav

Pre-gap length 0:00:02.00

Peak level 98.8 %
Extraction speed 1.0 X
Track quality 100.0 %
Test CRC BC2648D2
Copy CRC BC2648D2
Cannot be verified as accurate (confidence 46) [881E50BE], AccurateRip returned [71AA0EFE]
Copy OK

Track 2

Filename E:\My Rips\Michael Jackson – The Ultimate Collection (2004)\1-02. Michael Jackson – ABC.wav

Pre-gap length 0:00:01.00

Peak level 98.8 %
Extraction speed 0.9 X
Track quality 99.9 %
Test CRC 51E5F65E
Copy CRC 51E5F65E
Cannot be verified as accurate (confidence 45) [04B3CF89], AccurateRip returned [D9FA9D39]
Copy OK

Track 3

Filename E:\My Rips\Michael Jackson – The Ultimate Collection (2004)\1-03. Michael Jackson – I’ll Be There.wav

Pre-gap length 0:00:01.00

Peak level 97.8 %
Extraction speed 1.3 X
Track quality 100.0 %
Test CRC 66607A8B
Copy CRC 66607A8B
Cannot be verified as accurate (confidence 45) [DDCBA41A], AccurateRip returned [6078DEAA]
Copy OK

Track 4

Filename E:\My Rips\Michael Jackson – The Ultimate Collection (2004)\1-04. Michael Jackson – Got To Be There.wav

Pre-gap length 0:00:01.00

Peak level 98.8 %
Extraction speed 1.3 X
Track quality 100.0 %
Test CRC 47444719
Copy CRC 47444719
Cannot be verified as accurate (confidence 47) [F2E6506C], AccurateRip returned [D184ECCC]
Copy OK

Track 5

Filename E:\My Rips\Michael Jackson – The Ultimate Collection (2004)\1-05. Michael Jackson – I Wanna Be Where You Are.wav

Pre-gap length 0:00:01.00

Peak level 98.8 %
Extraction speed 1.4 X
Track quality 100.0 %
Test CRC 3C1F80DF
Copy CRC 3C1F80DF
Cannot be verified as accurate (confidence 47) [61E530A6], AccurateRip returned [4D97CD96]
Copy OK

Track 6

Filename E:\My Rips\Michael Jackson – The Ultimate Collection (2004)\1-06. Michael Jackson – Ben.wav

Pre-gap length 0:00:01.00

Peak level 98.8 %
Extraction speed 1.4 X
Track quality 100.0 %
Test CRC 6306F1FF
Copy CRC 6306F1FF
Cannot be verified as accurate (confidence 46) [2D56DA9B], AccurateRip returned [E813478B]
Copy OK

Track 7

Filename E:\My Rips\Michael Jackson – The Ultimate Collection (2004)\1-07. Michael Jackson – Dancing Machine (Single Version).wav

Pre-gap length 0:00:01.00

Peak level 98.8 %
Extraction speed 1.2 X
Track quality 99.9 %
Test CRC 339EC8F4
Copy CRC 339EC8F4
Cannot be verified as accurate (confidence 46) [EA73025F], AccurateRip returned [7C93B1FF]
Copy OK

Track 8

Filename E:\My Rips\Michael Jackson – The Ultimate Collection (2004)\1-08. Michael Jackson – Enjoy Yourself.wav

Pre-gap length 0:00:01.00

Peak level 100.0 %
Extraction speed 1.6 X
Track quality 100.0 %
Test CRC 0AEC4C96
Copy CRC 0AEC4C96
Cannot be verified as accurate (confidence 47) [DAF01C0B], AccurateRip returned [DEBBFD4B]
Copy OK

Track 9

Filename E:\My Rips\Michael Jackson – The Ultimate Collection (2004)\1-09. Michael Jackson – Ease On Down The Road.wav

Pre-gap length 0:00:01.00

Peak level 98.8 %
Extraction speed 1.6 X
Track quality 100.0 %
Test CRC D1EA8C67
Copy CRC D1EA8C67
Cannot be verified as accurate (confidence 50) [A69EB8D9], AccurateRip returned [21F97239]
Copy OK

Track 10

Filename E:\My Rips\Michael Jackson – The Ultimate Collection (2004)\1-10. Michael Jackson – You Can’t Win (From ”The Wiz”).wav

Pre-gap length 0:00:01.00

Peak level 98.8 %
Extraction speed 1.9 X
Track quality 100.0 %
Test CRC 33A383C9
Copy CRC 33A383C9
Cannot be verified as accurate (confidence 48) [1AADDA5A], AccurateRip returned [E22B56DA]
Copy OK

Track 11

Filename E:\My Rips\Michael Jackson – The Ultimate Collection (2004)\1-11. Michael Jackson – Shake A Body (Early Demo).wav

Pre-gap length 0:00:01.00

Peak level 98.8 %
Extraction speed 1.6 X
Track quality 100.0 %
Test CRC 7BE3A304
Copy CRC 7BE3A304
Cannot be verified as accurate (confidence 47) [59462FFB], AccurateRip returned [9499D576]
Copy OK

Track 12

Filename E:\My Rips\Michael Jackson – The Ultimate Collection (2004)\1-12. Michael Jackson – Shake Your Body (Down To The Ground).wav

Peak level 98.8 %
Extraction speed 1.9 X
Track quality 100.0 %
Test CRC DA5836FA
Copy CRC DA5836FA
Cannot be verified as accurate (confidence 47) [2A46FA29], AccurateRip returned [E60CDEF6]
Copy OK

Track 13

Filename E:\My Rips\Michael Jackson – The Ultimate Collection (2004)\1-13. Michael Jackson – Don’t Stop ‘Til You Get Enough.wav

Pre-gap length 0:00:01.00

Peak level 98.8 %
Extraction speed 1.9 X
Track quality 99.9 %
Test CRC DBD43CCB
Copy CRC DBD43CCB
Cannot be verified as accurate (confidence 47) [6AD9BE15], AccurateRip returned [3430C5CB]
Copy OK

Track 14

Filename E:\My Rips\Michael Jackson – The Ultimate Collection (2004)\1-14. Michael Jackson – Rock With You.wav

Peak level 98.8 %
Extraction speed 1.8 X
Track quality 99.9 %
Test CRC EEA55AF1
Copy CRC EEA55AF1
Cannot be verified as accurate (confidence 48) [56B76E49], AccurateRip returned [24EF1663]
Copy OK

Track 15

Filename E:\My Rips\Michael Jackson – The Ultimate Collection (2004)\1-15. Michael Jackson – Off The Wall.wav

Pre-gap length 0:00:01.00

Peak level 98.8 %
Extraction speed 2.1 X
Track quality 100.0 %
Test CRC 43B0F695
Copy CRC 43B0F695
Cannot be verified as accurate (confidence 46) [4F98EE12], AccurateRip returned [12F27092]
Copy OK

Track 16

Filename E:\My Rips\Michael Jackson – The Ultimate Collection (2004)\1-16. Michael Jackson – She’s Out Of My Life.wav

Pre-gap length 0:00:01.00

Peak level 92.6 %
Extraction speed 2.1 X
Track quality 100.0 %
Test CRC 6D1569AA
Copy CRC 6D1569AA
Cannot be verified as accurate (confidence 45) [531B10A5], AccurateRip returned [56DCC2E5]
Copy OK

Track 17

Filename E:\My Rips\Michael Jackson – The Ultimate Collection (2004)\1-17. Michael Jackson – Sunset Driver (Demo).wav

Pre-gap length 0:00:01.00

Peak level 98.8 %
Extraction speed 2.0 X
Track quality 99.9 %
Test CRC 8637E7D4
Copy CRC 8637E7D4
Cannot be verified as accurate (confidence 46) [9A961202], AccurateRip returned [7264D6B2]
Copy OK

Track 18

Filename E:\My Rips\Michael Jackson – The Ultimate Collection (2004)\1-18. Michael Jackson – Lovely One.wav

Pre-gap length 0:00:01.00

Peak level 98.8 %
Extraction speed 2.4 X
Track quality 100.0 %
Test CRC 2007AD8C
Copy CRC 2007AD8C
Cannot be verified as accurate (confidence 47) [13306C05], AccurateRip returned [E013D0BC]
Copy OK

Track 19

Filename E:\My Rips\Michael Jackson – The Ultimate Collection (2004)\1-19. Michael Jackson – This Place Hotel.wav

Peak level 100.0 %
Extraction speed 2.5 X
Track quality 100.0 %
Test CRC 41D196E6
Copy CRC 41D196E6
Cannot be verified as accurate (confidence 44) [E36B264C], AccurateRip returned [C52C0ABD]
Copy OK

No tracks could be verified as accurate
You may have a different pressing from the one(s) in the database

No errors occurred

End of status report

==== Log checksum B714306308972C820BC55520FB872CDDCC4FCBBD949C2AA0EB FBA57BDC9B830B ====

CD 2:

Exact Audio Copy V1.0 beta 1 from 15. November 2010

EAC extraction logfile from 9. May 2011, 13:05

Michael Jackson / The Ultimate Collection (Disc Two)

Used drive : PIONEER DVD-RW DVR-218L Adapter: 2 ID: 1

Read mode : Secure
Utilize accurate stream : Yes
Defeat audio cache : Yes
Make use of C2 pointers : No

Read offset correction : 6
Overread into Lead-In and Lead-Out : No
Fill up missing offset samples with silence : Yes
Delete leading and trailing silent blocks : No
Null samples used in CRC calculations : Yes
Used interface : Installed external ASPI interface
Gap handling : Appended to previous track

Used output format : User Defined Encoder
Selected bitrate : 128 kBit/s
Quality : High
Add ID3 tag : No
Command line compressor : C:\Program Files\Exact Audio Copy\Flac\flac.exe
Additional command line options : -8 -V -T “ARTIST=%a” -T “TITLE=%t” -T “ALBUM=%g” -T “DATE=%y” -T “TRACKNUMBER=%n” -T “GENRE=%m” -T “COMMENT=ripped by serginho199” %s

TOC of the extracted CD

Track | Start | Length | Start sector | End sector
———————————————————
1 | 0:00.00 | 6:03.39 | 0 | 27263
2 | 6:03.39 | 3:41.68 | 27264 | 43906
3 | 9:45.32 | 5:58.73 | 43907 | 70829
4 | 15:44.30 | 4:19.03 | 70830 | 90257
5 | 20:03.33 | 4:53.72 | 90258 | 112304
6 | 24:57.30 | 3:47.09 | 112305 | 129338
7 | 28:44.39 | 4:55.10 | 129339 | 151473
8 | 33:39.49 | 4:30.46 | 151474 | 171769
9 | 38:10.20 | 4:42.00 | 171770 | 192919
10 | 42:52.20 | 5:20.71 | 192920 | 216990
11 | 48:13.16 | 2:53.19 | 216991 | 229984

Track 1

Filename E:\My Rips\Michael Jackson – The Ultimate Collection (2004)\2-01. Michael Jackson – Wanna Be Startin’ Somethin’.wav

Pre-gap length 0:00:02.00

Peak level 98.8 %
Extraction speed 1.1 X
Track quality 100.0 %
Test CRC 9EE5518F
Copy CRC 9EE5518F
Cannot be verified as accurate (confidence 41) [A197C160], AccurateRip returned [DC10E9A2]
Copy OK

Track 2

Filename E:\My Rips\Michael Jackson – The Ultimate Collection (2004)\2-02. Michael Jackson – The Girl Is Mine.wav

Pre-gap length 0:00:01.00

Peak level 98.8 %
Extraction speed 1.2 X
Track quality 100.0 %
Test CRC 6041F9ED
Copy CRC 6041F9ED
Cannot be verified as accurate (confidence 42) [78839075], AccurateRip returned [79FAF79F]
Copy OK

Track 3

Filename E:\My Rips\Michael Jackson – The Ultimate Collection (2004)\2-03. Michael Jackson – Thriller.wav

Peak level 98.8 %
Extraction speed 1.3 X
Track quality 99.9 %
Test CRC EDF3526B
Copy CRC EDF3526B
Cannot be verified as accurate (confidence 43) [78E310AC], AccurateRip returned [3973A5F6]
Copy OK

Track 4

Filename E:\My Rips\Michael Jackson – The Ultimate Collection (2004)\2-04. Michael Jackson – Beat It.wav

Pre-gap length 0:00:01.00

Peak level 98.8 %
Extraction speed 1.5 X
Track quality 100.0 %
Test CRC 9375EF54
Copy CRC 9375EF54
Cannot be verified as accurate (confidence 42) [C12D7E42], AccurateRip returned [A4B1FCDC]
Copy OK

Track 5

Filename E:\My Rips\Michael Jackson – The Ultimate Collection (2004)\2-05. Michael Jackson – Billie Jean.wav

Pre-gap length 0:00:01.00

Peak level 98.8 %
Extraction speed 1.6 X
Track quality 100.0 %
Test CRC FD5B92AF
Copy CRC FD5B92AF
Cannot be verified as accurate (confidence 42) [E0CC5D82], AccurateRip returned [FAFBD4DA]
Copy OK

Track 6

Filename E:\My Rips\Michael Jackson – The Ultimate Collection (2004)\2-06. Michael Jackson – P.Y.T. (Pretty Young Thing) (Demo).wav

Pre-gap length 0:00:01.00

Peak level 98.8 %
Extraction speed 1.4 X
Track quality 99.9 %
Test CRC 20F2621C
Copy CRC 20F2621C
Cannot be verified as accurate (confidence 45) [75CBB9C0], AccurateRip returned [6B3D3882]
Copy OK

Track 7

Filename E:\My Rips\Michael Jackson – The Ultimate Collection (2004)\2-07. Michael Jackson – Someone In The Dark.wav

Pre-gap length 0:00:01.00

Peak level 98.8 %
Extraction speed 1.8 X
Track quality 100.0 %
Test CRC 7C018F00
Copy CRC 7C018F00
Cannot be verified as accurate (confidence 44) [70A1E450], AccurateRip returned [C58B36B2]
Copy OK

Track 8

Filename E:\My Rips\Michael Jackson – The Ultimate Collection (2004)\2-08. Michael Jackson – State Of Shock.wav

Pre-gap length 0:00:01.00

Peak level 98.8 %
Extraction speed 1.7 X
Track quality 99.9 %
Test CRC B71A145E
Copy CRC B71A145E
Cannot be verified as accurate (confidence 46) [83298163], AccurateRip returned [4F3E6FFD]
Copy OK

Track 9

Filename E:\My Rips\Michael Jackson – The Ultimate Collection (2004)\2-09. Michael Jackson – Scared Of The Moon (Demo).wav

Pre-gap length 0:00:01.00

Peak level 98.8 %
Extraction speed 2.0 X
Track quality 100.0 %
Test CRC E8A0EF4C
Copy CRC E8A0EF4C
Cannot be verified as accurate (confidence 47) [DCE782E3], AccurateRip returned [1844A683]
Copy OK

Track 10

Filename E:\My Rips\Michael Jackson – The Ultimate Collection (2004)\2-10. Michael Jackson – We Are The World (Demo).wav

Pre-gap length 0:00:01.00

Peak level 98.8 %
Extraction speed 2.1 X
Track quality 100.0 %
Test CRC 94066D50
Copy CRC 94066D50
Cannot be verified as accurate (confidence 48) [436B292A], AccurateRip returned [0211892C]
Copy OK

Track 11

Filename E:\My Rips\Michael Jackson – The Ultimate Collection (2004)\2-11. Michael Jackson – We Are Here To Change The World (From ”Captain EO”).wav

Pre-gap length 0:00:00.98

Peak level 98.8 %
Extraction speed 2.0 X
Track quality 100.0 %
Test CRC BF8D5022
Copy CRC BF8D5022
Cannot be verified as accurate (confidence 45) [25AE9986], AccurateRip returned [47AEDD46]
Copy OK

No tracks could be verified as accurate
You may have a different pressing from the one(s) in the database

No errors occurred

End of status report

==== Log checksum 38A960F7812F584FC21D247E92626AD83A50D9DACAE0D8013C D09829C5246AC7 ====

CD 3:

Exact Audio Copy V1.0 beta 1 from 15. November 2010

EAC extraction logfile from 9. May 2011, 14:32

Michael Jackson / The Ultimate Collection (Disc Three)

Used drive : PIONEER DVD-RW DVR-218L Adapter: 2 ID: 1

Read mode : Secure
Utilize accurate stream : Yes
Defeat audio cache : Yes
Make use of C2 pointers : No

Read offset correction : 6
Overread into Lead-In and Lead-Out : No
Fill up missing offset samples with silence : Yes
Delete leading and trailing silent blocks : No
Null samples used in CRC calculations : Yes
Used interface : Installed external ASPI interface
Gap handling : Appended to previous track

Used output format : User Defined Encoder
Selected bitrate : 128 kBit/s
Quality : High
Add ID3 tag : No
Command line compressor : C:\Program Files\Exact Audio Copy\Flac\flac.exe
Additional command line options : -8 -V -T “ARTIST=%a” -T “TITLE=%t” -T “ALBUM=%g” -T “DATE=%y” -T “TRACKNUMBER=%n” -T “GENRE=%m” -T “COMMENT=ripped by serginho199” %s

TOC of the extracted CD

Track | Start | Length | Start sector | End sector
———————————————————
1 | 0:00.00 | 4:08.03 | 0 | 18602
2 | 4:08.03 | 4:58.70 | 18603 | 41022
3 | 9:06.73 | 5:19.72 | 41023 | 65019
4 | 14:26.70 | 4:13.40 | 65020 | 84034
5 | 18:40.35 | 4:41.55 | 84035 | 105164
6 | 23:22.15 | 4:18.18 | 105165 | 124532
7 | 27:40.33 | 5:09.67 | 124533 | 147774
8 | 32:50.25 | 6:40.59 | 147775 | 177833
9 | 39:31.09 | 5:45.48 | 177834 | 203756
10 | 45:16.57 | 5:40.07 | 203757 | 229263
11 | 50:56.64 | 4:00.59 | 229264 | 247322
12 | 54:57.48 | 4:17.14 | 247323 | 266611
13 | 59:14.62 | 7:57.70 | 266612 | 302456
14 | 67:12.57 | 5:25.42 | 302457 | 326873

Track 1

Filename E:\My Rips\Michael Jackson – The Ultimate Collection (2004)\3-01. Michael Jackson – Bad.wav

Pre-gap length 0:00:02.00

Peak level 98.8 %
Extraction speed 1.0 X
Track quality 99.9 %
Test CRC ACB129BE
Copy CRC ACB129BE
Cannot be verified as accurate (confidence 43) [0AC30BC8], AccurateRip returned [E35C8A18]
Copy OK

Track 2

Filename E:\My Rips\Michael Jackson – The Ultimate Collection (2004)\3-02. Michael Jackson – The Way You Make Me Feel.wav

Pre-gap length 0:00:01.00

Peak level 98.8 %
Extraction speed 1.3 X
Track quality 100.0 %
Test CRC 518C62B3
Copy CRC 518C62B3
Cannot be verified as accurate (confidence 43) [CDAF3617], AccurateRip returned [C2D30C77]
Copy OK

Track 3

Filename E:\My Rips\Michael Jackson – The Ultimate Collection (2004)\3-03. Michael Jackson – Man In The Mirror.wav

Pre-gap length 0:00:01.00

Peak level 98.8 %
Extraction speed 1.4 X
Track quality 100.0 %
Test CRC 0BE6DF9A
Copy CRC 0BE6DF9A
Cannot be verified as accurate (confidence 45) [D5B56DD2], AccurateRip returned [D8F1B992]
Copy OK

Track 4

Filename E:\My Rips\Michael Jackson – The Ultimate Collection (2004)\3-04. Michael Jackson – I Just Can’t Stop Loving You.wav

Pre-gap length 0:00:01.00

Peak level 98.8 %
Extraction speed 1.5 X
Track quality 100.0 %
Test CRC 60F25E9A
Copy CRC 60F25E9A
Cannot be verified as accurate (confidence 44) [550B0788], AccurateRip returned [DE504988]
Copy OK

Track 5

Filename E:\My Rips\Michael Jackson – The Ultimate Collection (2004)\3-05. Michael Jackson – Dirty Diana.wav

Pre-gap length 0:00:01.00

Peak level 98.8 %
Extraction speed 1.6 X
Track quality 100.0 %
Test CRC 37514B9E
Copy CRC 37514B9E
Cannot be verified as accurate (confidence 45) [A0AEBB91], AccurateRip returned [E7B60191]
Copy OK

Track 6

Filename E:\My Rips\Michael Jackson – The Ultimate Collection (2004)\3-06. Michael Jackson – Smooth Criminal.wav

Pre-gap length 0:00:01.00

Peak level 98.8 %
Extraction speed 1.7 X
Track quality 100.0 %
Test CRC 94A96560
Copy CRC 94A96560
Cannot be verified as accurate (confidence 45) [1C5147AA], AccurateRip returned [399DDB5A]
Copy OK

Track 7

Filename E:\My Rips\Michael Jackson – The Ultimate Collection (2004)\3-07. Michael Jackson – Cheater (Demo).wav

Pre-gap length 0:00:01.00

Peak level 98.8 %
Extraction speed 1.8 X
Track quality 100.0 %
Test CRC 05FF48B5
Copy CRC 05FF48B5
Cannot be verified as accurate (confidence 47) [4EFB8C61], AccurateRip returned [C92661D1]
Copy OK

Track 8

Filename E:\My Rips\Michael Jackson – The Ultimate Collection (2004)\3-08. Michael Jackson – Dangerous (Early Version).wav

Pre-gap length 0:00:01.00

Peak level 98.8 %
Extraction speed 1.8 X
Track quality 99.9 %
Test CRC 3C4F0F0B
Copy CRC 3C4F0F0B
Cannot be verified as accurate (confidence 44) [3B11197B], AccurateRip returned [270D157B]
Copy OK

Track 9

Filename E:\My Rips\Michael Jackson – The Ultimate Collection (2004)\3-09. Michael Jackson – Monkey Business.wav

Pre-gap length 0:00:01.02

Peak level 98.8 %
Extraction speed 2.0 X
Track quality 100.0 %
Test CRC 5C0670DE
Copy CRC 5C0670DE
Cannot be verified as accurate (confidence 45) [8EFDAA4F], AccurateRip returned [B055394F]
Copy OK

Track 10

Filename E:\My Rips\Michael Jackson – The Ultimate Collection (2004)\3-10. Michael Jackson – Jam.wav

Pre-gap length 0:00:00.98

Peak level 98.8 %
Extraction speed 2.1 X
Track quality 100.0 %
Test CRC A1F8563B
Copy CRC A1F8563B
Cannot be verified as accurate (confidence 43) [968906AE], AccurateRip returned [C4D7658E]
Copy OK

Track 11

Filename E:\My Rips\Michael Jackson – The Ultimate Collection (2004)\3-11. Michael Jackson – Remember The Time.wav

Pre-gap length 0:00:01.00

Peak level 98.8 %
Extraction speed 2.1 X
Track quality 100.0 %
Test CRC 11ADD37A
Copy CRC 11ADD37A
Cannot be verified as accurate (confidence 43) [16A3FE8B], AccurateRip returned [ECBF6DEB]
Copy OK

Track 12

Filename E:\My Rips\Michael Jackson – The Ultimate Collection (2004)\3-12. Michael Jackson – Black Or White.wav

Pre-gap length 0:00:01.00

Peak level 98.8 %
Extraction speed 2.2 X
Track quality 100.0 %
Test CRC 18A730C0
Copy CRC 18A730C0
Cannot be verified as accurate (confidence 43) [34AD0531], AccurateRip returned [BABF2111]
Copy OK

Track 13

Filename E:\My Rips\Michael Jackson – The Ultimate Collection (2004)\3-13. Michael Jackson – Who It Is (IHS Mix).wav

Pre-gap length 0:00:01.00

Peak level 98.8 %
Extraction speed 2.4 X
Track quality 100.0 %
Test CRC EF4C902E
Copy CRC EF4C902E
Cannot be verified as accurate (confidence 44) [400B704C], AccurateRip returned [BB2D20DC]
Copy OK

Track 14

Filename E:\My Rips\Michael Jackson – The Ultimate Collection (2004)\3-14. Michael Jackson – Someone Put Your Hand Out.wav

Pre-gap length 0:00:01.00

Peak level 98.8 %
Extraction speed 2.4 X
Track quality 100.0 %
Test CRC C3480C8D
Copy CRC C3480C8D
Cannot be verified as accurate (confidence 45) [459B9B61], AccurateRip returned [7DE0C451]
Copy OK

No tracks could be verified as accurate
You may have a different pressing from the one(s) in the database

No errors occurred

End of status report

==== Log checksum 52A68CCE22CD1C692270BF5167DBEFCABD2A89DCE6FF318358 4B98E5C81782ED ====

CD 4:

Exact Audio Copy V1.0 beta 1 from 15. November 2010

EAC extraction logfile from 9. May 2011, 16:05

Michael Jackson / The Ultimate Collection (Disc Four)

Used drive : PIONEER DVD-RW DVR-218L Adapter: 2 ID: 1

Read mode : Secure
Utilize accurate stream : Yes
Defeat audio cache : Yes
Make use of C2 pointers : No

Read offset correction : 6
Overread into Lead-In and Lead-Out : No
Fill up missing offset samples with silence : Yes
Delete leading and trailing silent blocks : No
Null samples used in CRC calculations : Yes
Used interface : Installed external ASPI interface
Gap handling : Appended to previous track

Used output format : User Defined Encoder
Selected bitrate : 128 kBit/s
Quality : High
Add ID3 tag : No
Command line compressor : C:\Program Files\Exact Audio Copy\Flac\flac.exe
Additional command line options : -8 -V -T “ARTIST=%a” -T “TITLE=%t” -T “ALBUM=%g” -T “DATE=%y” -T “TRACKNUMBER=%n” -T “GENRE=%m” -T “COMMENT=ripped by serginho199” %s

TOC of the extracted CD

Track | Start | Length | Start sector | End sector
———————————————————
1 | 0:00.00 | 6:02.28 | 0 | 27177
2 | 6:02.28 | 5:45.59 | 27178 | 53111
3 | 11:48.12 | 4:28.72 | 53112 | 73283
4 | 16:17.09 | 4:53.63 | 73284 | 95321
5 | 21:10.72 | 4:13.19 | 95322 | 114315
6 | 25:24.16 | 4:23.09 | 114316 | 134049
7 | 29:47.25 | 4:31.53 | 134050 | 154427
8 | 34:19.03 | 6:26.59 | 154428 | 183436
9 | 40:45.62 | 5:09.04 | 183437 | 206615
10 | 45:54.66 | 4:40.31 | 206616 | 227646
11 | 50:35.22 | 4:04.08 | 227647 | 245954
12 | 54:39.30 | 4:30.60 | 245955 | 266264
13 | 59:10.15 | 5:45.14 | 266265 | 292153

Track 1

Filename E:\My Rips\Michael Jackson – The Ultimate Collection (2004)\4-01. Michael Jackson – You Are Not Alone.wav

Pre-gap length 0:00:02.00

Peak level 98.8 %
Extraction speed 1.1 X
Track quality 100.0 %
Test CRC 9EAE7FAB
Copy CRC 9EAE7FAB
Cannot be verified as accurate (confidence 42) [29038514], AccurateRip returned [7C6FA844]
Copy OK

Track 2

Filename E:\My Rips\Michael Jackson – The Ultimate Collection (2004)\4-02. Michael Jackson – Stranger In Moscow.wav

Pre-gap length 0:00:00.98

Peak level 98.8 %
Extraction speed 1.3 X
Track quality 100.0 %
Test CRC ED0C1719
Copy CRC ED0C1719
Cannot be verified as accurate (confidence 42) [69D45874], AccurateRip returned [F422884E]
Copy OK

Track 3

Filename E:\My Rips\Michael Jackson – The Ultimate Collection (2004)\4-03. Michael Jackson – Childhood (Theme From ”Free Willy 2”).wav

Pre-gap length 0:00:00.98

Peak level 98.8 %
Extraction speed 1.2 X
Track quality 99.9 %
Test CRC 369A69B4
Copy CRC 369A69B4
Cannot be verified as accurate (confidence 41) [D57083C0], AccurateRip returned [5FA750D8]
Copy OK

Track 4

Filename E:\My Rips\Michael Jackson – The Ultimate Collection (2004)\4-04. Michael Jackson – On The Line.wav

Pre-gap length 0:00:00.98

Peak level 98.8 %
Extraction speed 1.3 X
Track quality 99.9 %
Test CRC 0CDAFC77
Copy CRC 0CDAFC77
Cannot be verified as accurate (confidence 44) [1118CC62], AccurateRip returned [A7EBAAC4]
Copy OK

Track 5

Filename E:\My Rips\Michael Jackson – The Ultimate Collection (2004)\4-05. Michael Jackson – Blood On The Dance Floor.wav

Pre-gap length 0:00:00.98

Peak level 98.8 %
Extraction speed 1.6 X
Track quality 100.0 %
Test CRC 16156429
Copy CRC 16156429
Cannot be verified as accurate (confidence 41) [B9C66714], AccurateRip returned [87C7CC46]
Copy OK

Track 6

Filename E:\My Rips\Michael Jackson – The Ultimate Collection (2004)\4-06. Michael Jackson – Fall Again (Demo).wav

Pre-gap length 0:00:00.98

Peak level 98.8 %
Extraction speed 1.7 X
Track quality 100.0 %
Test CRC 870526EB
Copy CRC 870526EB
Cannot be verified as accurate (confidence 44) [61DB6F06], AccurateRip returned [F7322940]
Copy OK

Track 7

Filename E:\My Rips\Michael Jackson – The Ultimate Collection (2004)\4-07. Michael Jackson – In The Back.wav

Pre-gap length 0:00:00.98

Peak level 98.8 %
Extraction speed 1.8 X
Track quality 100.0 %
Test CRC BCDA95EA
Copy CRC BCDA95EA
Cannot be verified as accurate (confidence 44) [CDDA5568], AccurateRip returned [74FC8C90]
Copy OK

Track 8

Filename E:\My Rips\Michael Jackson – The Ultimate Collection (2004)\4-08. Michael Jackson – Unbreakable.wav

Pre-gap length 0:00:00.98

Peak level 98.8 %
Extraction speed 1.9 X
Track quality 100.0 %
Test CRC 0FBD1FD1
Copy CRC 0FBD1FD1
Cannot be verified as accurate (confidence 41) [BD2FB4F0], AccurateRip returned [C40C63B4]
Copy OK

Track 9

Filename E:\My Rips\Michael Jackson – The Ultimate Collection (2004)\4-09. Michael Jackson – You Rock My World.wav

Pre-gap length 0:00:00.98

Peak level 98.8 %
Extraction speed 2.0 X
Track quality 100.0 %
Test CRC 9BD46708
Copy CRC 9BD46708
Cannot be verified as accurate (confidence 42) [8DE34295], AccurateRip returned [54F8CCB3]
Copy OK

Track 10

Filename E:\My Rips\Michael Jackson – The Ultimate Collection (2004)\4-10. Michael Jackson – Butterflies.wav

Pre-gap length 0:00:00.98

Peak level 98.8 %
Extraction speed 2.0 X
Track quality 100.0 %
Test CRC 24825255
Copy CRC 24825255
Cannot be verified as accurate (confidence 42) [C8775A0A], AccurateRip returned [A6550B34]
Copy OK

Track 11

Filename E:\My Rips\Michael Jackson – The Ultimate Collection (2004)\4-11. Michael Jackson – Beautiful Girl (Demo).wav

Pre-gap length 0:00:00.98

Peak level 98.8 %
Extraction speed 2.1 X
Track quality 100.0 %
Test CRC FF1A8DA0
Copy CRC FF1A8DA0
Cannot be verified as accurate (confidence 45) [0783C986], AccurateRip returned [B967764E]
Copy OK

Track 12

Filename E:\My Rips\Michael Jackson – The Ultimate Collection (2004)\4-12. Michael Jackson – The Way You Love Me.wav

Pre-gap length 0:00:00.98

Peak level 98.8 %
Extraction speed 2.2 X
Track quality 100.0 %
Test CRC 7C8AC567
Copy CRC 7C8AC567
Cannot be verified as accurate (confidence 45) [05B54ED8], AccurateRip returned [624039E8]
Copy OK

Track 13

Filename E:\My Rips\Michael Jackson – The Ultimate Collection (2004)\4-13. Michael Jackson – We’ve Had Enough.wav

Pre-gap length 0:00:00.98

Peak level 98.8 %
Extraction speed 2.3 X
Track quality 100.0 %
Test CRC 13B3D9A7
Copy CRC 13B3D9A7
Cannot be verified as accurate (confidence 44) [1EE5597F], AccurateRip returned [2AC8CEC7]
Copy OK

No tracks could be verified as accurate
You may have a different pressing from the one(s) in the database

No errors occurred

End of status report

==== Log checksum 9CB2936FC3B7680D5031B2E591C71881BBBDDAFDA423912F1E 63411F2344CC1D ====

Cue:

CD 1:

REM GENRE “Power Pop, Hip Hop, Funk, Soul”
REM DATE 2004
REM DISCID 10115813
REM COMMENT “ExactAudioCopy v1.0b1”
PERFORMER “Michael Jackson”
TITLE “The Ultimate Collection (Disc One)”
FILE “1-01. Michael Jackson – I Want You Back.wav” WAVE
TRACK 01 AUDIO
TITLE “I Want You Back”
PERFORMER “Michael Jackson”
INDEX 01 00:00:00
TRACK 02 AUDIO
TITLE “ABC”
PERFORMER “Michael Jackson”
INDEX 00 02:58:52
FILE “1-02. Michael Jackson – ABC.wav” WAVE
INDEX 01 00:00:00
TRACK 03 AUDIO
TITLE “I’ll Be There”
PERFORMER “Michael Jackson”
INDEX 00 02:57:22
FILE “1-03. Michael Jackson – I’ll Be There.wav” WAVE
INDEX 01 00:00:00
TRACK 04 AUDIO
TITLE “Got To Be There”
PERFORMER “Michael Jackson”
INDEX 00 03:57:33
FILE “1-04. Michael Jackson – Got To Be There.wav” WAVE
INDEX 01 00:00:00
TRACK 05 AUDIO
TITLE “I Wanna Be Where You Are”
PERFORMER “Michael Jackson”
INDEX 00 03:22:20
FILE “1-05. Michael Jackson – I Wanna Be Where You Are.wav” WAVE
INDEX 01 00:00:00
TRACK 06 AUDIO
TITLE “Ben”
PERFORMER “Michael Jackson”
INDEX 00 02:56:39
FILE “1-06. Michael Jackson – Ben.wav” WAVE
INDEX 01 00:00:00
TRACK 07 AUDIO
TITLE “Dancing Machine (Single Version)”
PERFORMER “Michael Jackson”
INDEX 00 02:44:18
FILE “1-07. Michael Jackson – Dancing Machine (Single Version).wav” WAVE
INDEX 01 00:00:00
TRACK 08 AUDIO
TITLE “Enjoy Yourself”
PERFORMER “Michael Jackson”
INDEX 00 02:36:55
FILE “1-08. Michael Jackson – Enjoy Yourself.wav” WAVE
INDEX 01 00:00:00
TRACK 09 AUDIO
TITLE “Ease On Down The Road”
PERFORMER “Michael Jackson”
INDEX 00 03:39:64
FILE “1-09. Michael Jackson – Ease On Down The Road.wav” WAVE
INDEX 01 00:00:00
TRACK 10 AUDIO
TITLE “You Can’t Win (From ‘The Wiz’)”
PERFORMER “Michael Jackson”
INDEX 00 03:18:62
FILE “1-10. Michael Jackson – You Can’t Win (From ”The Wiz”).wav” WAVE
INDEX 01 00:00:00
TRACK 11 AUDIO
TITLE “Shake A Body (Early Demo)”
PERFORMER “Michael Jackson”
INDEX 00 07:17:05
FILE “1-11. Michael Jackson – Shake A Body (Early Demo).wav” WAVE
INDEX 01 00:00:00
FILE “1-12. Michael Jackson – Shake Your Body (Down To The Ground).wav” WAVE
TRACK 12 AUDIO
TITLE “Shake Your Body (Down To The Ground)”
PERFORMER “Michael Jackson”
INDEX 01 00:00:00
TRACK 13 AUDIO
TITLE “Don’t Stop ‘Til You Get Enough”
PERFORMER “Michael Jackson”
INDEX 00 03:44:67
FILE “1-13. Michael Jackson – Don’t Stop ‘Til You Get Enough.wav” WAVE
INDEX 01 00:00:00
FILE “1-14. Michael Jackson – Rock With You.wav” WAVE
TRACK 14 AUDIO
TITLE “Rock With You”
PERFORMER “Michael Jackson”
INDEX 01 00:00:00
TRACK 15 AUDIO
TITLE “Off The Wall”
PERFORMER “Michael Jackson”
INDEX 00 03:39:62
FILE “1-15. Michael Jackson – Off The Wall.wav” WAVE
INDEX 01 00:00:00
TRACK 16 AUDIO
TITLE “She’s Out Of My Life”
PERFORMER “Michael Jackson”
INDEX 00 04:05:25
FILE “1-16. Michael Jackson – She’s Out Of My Life.wav” WAVE
INDEX 01 00:00:00
TRACK 17 AUDIO
TITLE “Sunset Driver (Demo)”
PERFORMER “Michael Jackson”
INDEX 00 03:37:22
FILE “1-17. Michael Jackson – Sunset Driver (Demo).wav” WAVE
INDEX 01 00:00:00
TRACK 18 AUDIO
TITLE “Lovely One”
PERFORMER “Michael Jackson”
INDEX 00 04:02:56
FILE “1-18. Michael Jackson – Lovely One.wav” WAVE
INDEX 01 00:00:00
FILE “1-19. Michael Jackson – This Place Hotel.wav” WAVE
TRACK 19 AUDIO
TITLE “This Place Hotel”
PERFORMER “Michael Jackson”
INDEX 01 00:00:00

CD 2:

REM GENRE “Power Pop, Hip Hop, Funk, Soul”
REM DATE 2004
REM DISCID A40BFA0B
REM COMMENT “ExactAudioCopy v1.0b1”
PERFORMER “Michael Jackson”
TITLE “The Ultimate Collection (Disc Two)”
FILE “2-01. Michael Jackson – Wanna Be Startin’ Somethin’.wav” WAVE
TRACK 01 AUDIO
TITLE “Wanna Be Startin’ Somethin'”
PERFORMER “Michael Jackson”
INDEX 01 00:00:00
TRACK 02 AUDIO
TITLE “The Girl Is Mine”
PERFORMER “Michael Jackson”
INDEX 00 06:02:39
FILE “2-02. Michael Jackson – The Girl Is Mine.wav” WAVE
INDEX 01 00:00:00
FILE “2-03. Michael Jackson – Thriller.wav” WAVE
TRACK 03 AUDIO
TITLE “Thriller”
PERFORMER “Michael Jackson”
INDEX 01 00:00:00
TRACK 04 AUDIO
TITLE “Beat It”
PERFORMER “Michael Jackson”
INDEX 00 05:57:73
FILE “2-04. Michael Jackson – Beat It.wav” WAVE
INDEX 01 00:00:00
TRACK 05 AUDIO
TITLE “Billie Jean”
PERFORMER “Michael Jackson”
INDEX 00 04:18:03
FILE “2-05. Michael Jackson – Billie Jean.wav” WAVE
INDEX 01 00:00:00
TRACK 06 AUDIO
TITLE “P.Y.T. (Pretty Young Thing) (Demo)”
PERFORMER “Michael Jackson”
INDEX 00 04:52:72
FILE “2-06. Michael Jackson – P.Y.T. (Pretty Young Thing) (Demo).wav” WAVE
INDEX 01 00:00:00
TRACK 07 AUDIO
TITLE “Someone In The Dark”
PERFORMER “Michael Jackson”
INDEX 00 03:46:09
FILE “2-07. Michael Jackson – Someone In The Dark.wav” WAVE
INDEX 01 00:00:00
TRACK 08 AUDIO
TITLE “State Of Shock “
PERFORMER “Michael Jackson”
INDEX 00 04:54:10
FILE “2-08. Michael Jackson – State Of Shock.wav” WAVE
INDEX 01 00:00:00
TRACK 09 AUDIO
TITLE “Scared Of The Moon (Demo)”
PERFORMER “Michael Jackson”
INDEX 00 04:29:46
FILE “2-09. Michael Jackson – Scared Of The Moon (Demo).wav” WAVE
INDEX 01 00:00:00
TRACK 10 AUDIO
TITLE “We Are The World (Demo)”
PERFORMER “Michael Jackson”
INDEX 00 04:41:00
FILE “2-10. Michael Jackson – We Are The World (Demo).wav” WAVE
INDEX 01 00:00:00
TRACK 11 AUDIO
TITLE “We Are Here To Change The World (From ‘Captain EO’)”
PERFORMER “Michael Jackson”
INDEX 00 05:19:72
FILE “2-11. Michael Jackson – We Are Here To Change The World (From ”Captain EO”).wav” WAVE
INDEX 01 00:00:00

CD 3:

REM GENRE “Power Pop, Hip Hop, Funk, Soul”
REM DATE 2004
REM DISCID C711060E
REM COMMENT “ExactAudioCopy v1.0b1”
PERFORMER “Michael Jackson”
TITLE “The Ultimate Collection (Disc Three)”
FILE “3-01. Michael Jackson – Bad.wav” WAVE
TRACK 01 AUDIO
TITLE “Bad”
PERFORMER “Michael Jackson”
INDEX 01 00:00:00
TRACK 02 AUDIO
TITLE “The Way You Make Me Feel”
PERFORMER “Michael Jackson”
INDEX 00 04:07:03
FILE “3-02. Michael Jackson – The Way You Make Me Feel.wav” WAVE
INDEX 01 00:00:00
TRACK 03 AUDIO
TITLE “Man In The Mirror”
PERFORMER “Michael Jackson”
INDEX 00 04:57:70
FILE “3-03. Michael Jackson – Man In The Mirror.wav” WAVE
INDEX 01 00:00:00
TRACK 04 AUDIO
TITLE “I Just Can’t Stop Loving You”
PERFORMER “Michael Jackson”
INDEX 00 05:18:72
FILE “3-04. Michael Jackson – I Just Can’t Stop Loving You.wav” WAVE
INDEX 01 00:00:00
TRACK 05 AUDIO
TITLE “Dirty Diana”
PERFORMER “Michael Jackson”
INDEX 00 04:12:40
FILE “3-05. Michael Jackson – Dirty Diana.wav” WAVE
INDEX 01 00:00:00
TRACK 06 AUDIO
TITLE “Smooth Criminal”
PERFORMER “Michael Jackson”
INDEX 00 04:40:55
FILE “3-06. Michael Jackson – Smooth Criminal.wav” WAVE
INDEX 01 00:00:00
TRACK 07 AUDIO
TITLE “Cheater (Demo)”
PERFORMER “Michael Jackson”
INDEX 00 04:17:18
FILE “3-07. Michael Jackson – Cheater (Demo).wav” WAVE
INDEX 01 00:00:00
TRACK 08 AUDIO
TITLE “Dangerous (Early Version)”
PERFORMER “Michael Jackson”
INDEX 00 05:08:67
FILE “3-08. Michael Jackson – Dangerous (Early Version).wav” WAVE
INDEX 01 00:00:00
TRACK 09 AUDIO
TITLE “Monkey Business”
PERFORMER “Michael Jackson”
INDEX 00 06:39:57
FILE “3-09. Michael Jackson – Monkey Business.wav” WAVE
INDEX 01 00:00:00
TRACK 10 AUDIO
TITLE “Jam”
PERFORMER “Michael Jackson”
INDEX 00 05:44:49
FILE “3-10. Michael Jackson – Jam.wav” WAVE
INDEX 01 00:00:00
TRACK 11 AUDIO
TITLE “Remember The Time”
PERFORMER “Michael Jackson”
INDEX 00 05:39:07
FILE “3-11. Michael Jackson – Remember The Time.wav” WAVE
INDEX 01 00:00:00
TRACK 12 AUDIO
TITLE “Black Or White”
PERFORMER “Michael Jackson”
INDEX 00 03:59:59
FILE “3-12. Michael Jackson – Black Or White.wav” WAVE
INDEX 01 00:00:00
TRACK 13 AUDIO
TITLE “Who It Is (IHS Mix)”
PERFORMER “Michael Jackson”
INDEX 00 04:16:14
FILE “3-13. Michael Jackson – Who It Is (IHS Mix).wav” WAVE
INDEX 01 00:00:00
TRACK 14 AUDIO
TITLE “Someone Put Your Hand Out”
PERFORMER “Michael Jackson”
INDEX 00 07:56:70
FILE “3-14. Michael Jackson – Someone Put Your Hand Out.wav” WAVE
INDEX 01 00:00:00

CD 4:

REM GENRE “Power Pop, Hip Hop, Funk, Soul”
REM DATE 2004
REM DISCID BB0F370D
REM COMMENT “ExactAudioCopy v1.0b1”
PERFORMER “Michael Jackson”
TITLE “The Ultimate Collection (Disc Four)”
FILE “4-01. Michael Jackson – You Are Not Alone.wav” WAVE
TRACK 01 AUDIO
TITLE “You Are Not Alone”
PERFORMER “Michael Jackson”
INDEX 01 00:00:00
TRACK 02 AUDIO
TITLE “Stranger In Moscow”
PERFORMER “Michael Jackson”
INDEX 00 06:01:29
FILE “4-02. Michael Jackson – Stranger In Moscow.wav” WAVE
INDEX 01 00:00:00
TRACK 03 AUDIO
TITLE “Childhood (Theme From ‘Free Willy 2’)”
PERFORMER “Michael Jackson”
INDEX 00 05:44:60
FILE “4-03. Michael Jackson – Childhood (Theme From ”Free Willy 2”).wav” WAVE
INDEX 01 00:00:00
TRACK 04 AUDIO
TITLE “On The Line”
PERFORMER “Michael Jackson”
INDEX 00 04:27:73
FILE “4-04. Michael Jackson – On The Line.wav” WAVE
INDEX 01 00:00:00
TRACK 05 AUDIO
TITLE “Blood On The Dance Floor”
PERFORMER “Michael Jackson”
INDEX 00 04:52:64
FILE “4-05. Michael Jackson – Blood On The Dance Floor.wav” WAVE
INDEX 01 00:00:00
TRACK 06 AUDIO
TITLE “Fall Again (Demo)”
PERFORMER “Michael Jackson”
INDEX 00 04:12:20
FILE “4-06. Michael Jackson – Fall Again (Demo).wav” WAVE
INDEX 01 00:00:00
TRACK 07 AUDIO
TITLE “In The Back”
PERFORMER “Michael Jackson”
INDEX 00 04:22:10
FILE “4-07. Michael Jackson – In The Back.wav” WAVE
INDEX 01 00:00:00
TRACK 08 AUDIO
TITLE “Unbreakable”
PERFORMER “Michael Jackson”
INDEX 00 04:30:54
FILE “4-08. Michael Jackson – Unbreakable.wav” WAVE
INDEX 01 00:00:00
TRACK 09 AUDIO
TITLE “You Rock My World”
PERFORMER “Michael Jackson”
INDEX 00 06:25:60
FILE “4-09. Michael Jackson – You Rock My World.wav” WAVE
INDEX 01 00:00:00
TRACK 10 AUDIO
TITLE “Butterflies”
PERFORMER “Michael Jackson”
INDEX 00 05:08:05
FILE “4-10. Michael Jackson – Butterflies.wav” WAVE
INDEX 01 00:00:00
TRACK 11 AUDIO
TITLE “Beautiful Girl (Demo)”
PERFORMER “Michael Jackson”
INDEX 00 04:39:32
FILE “4-11. Michael Jackson – Beautiful Girl (Demo).wav” WAVE
INDEX 01 00:00:00
TRACK 12 AUDIO
TITLE “The Way You Love Me”
PERFORMER “Michael Jackson”
INDEX 00 04:03:09
FILE “4-12. Michael Jackson – The Way You Love Me.wav” WAVE
INDEX 01 00:00:00
TRACK 13 AUDIO
TITLE “We’ve Had Enough”
PERFORMER “Michael Jackson”
INDEX 00 04:29:61
FILE “4-13. Michael Jackson – We’ve Had Enough.wav” WAVE
INDEX 01 00:00:00

Format: FLAC
Bitrate: lossless
Größe: 1,92 GB

Download

Share-Online, Uploaded

http://www.relink.us/f/0fc6e43a3dd2589c742217d71664c6

Nur 1x gepackt, kein Passwort, Mirror kompatibel






Share this