Tracklist:

Side A: 1979-1987

01. 10:15 Saturday Night 3:33
02. Boys Don’t Cry 2:34
03. Jumping Someone Else’s Train 2:53
04. Three Imaginary Boys 3:11
05. Play For Today 3:35
06. A Forest 5:52
07. Let’s Go To Bed 3:30
08. The Walk 3:20
09. The Love Cats 3:36
10. The Caterpillar 3:37
11. In Between Days 2:54
12. Push 4:25
13. Kyoto Song 4:13
14. A Night Like This 4:03
15. Close To Me 3:21
16. Why Can’t I Be You? 3:10
17. A Thousand Hours 3:19
18. Catch 2:39
19. How Beautiful You Are 5:09
20. Hot Hot Hot 3:29
21. Just Like Heaven 3:27

Side B: 1989-2004

01. Pictures Of You 7:20
02. Love Song 3:23
03. Lullaby 4:06
04. Fascination Street 5:06
05. Never Enough 4:25
06. High 3:29
07. Doing The Unstuck 4:21
08. Friday I’m In Love 3:30
09. Letter To Elise 5:08
10. Mint Car 3:27
11. Wrong Number 5:58
12. Maybe Someday 5:02
13. Out Of This World 6:36
14. Signal To Noise 4:04
15. Cut Here 4:09
16. The End Of The World 3:42
17. Taking Off 3:16

Log:

CD 1:

Exact Audio Copy V0.99 prebeta 5 from 4. May 2009

EAC extraction logfile from 15. May 2010, 23:21

The Cure / Greatest Hits CD 1

Used drive : PIONEER DVDRW DR-KD08HB Adapter: 1 ID: 0

Read mode : Secure
Utilize accurate stream : Yes
Defeat audio cache : Yes
Make use of C2 pointers : No

Read offset correction : 48
Overread into Lead-In and Lead-Out : No
Fill up missing offset samples with silence : Yes
Delete leading and trailing silent blocks : No
Null samples used in CRC calculations : Yes
Used interface : Native Win32 interface for Win NT & 2000
Gap handling : Appended to previous track

Used output format : User Defined Encoder
Selected bitrate : 768 kBit/s
Quality : High
Add ID3 tag : No
Command line compressor : C:\Program Files\Exact Audio Copy\FLAC\FLAC.EXE
Additional command line options : -8 -V -T “ARTIST=%a” -T “TITLE=%t” -T “ALBUM=%g” -T “DATE=%y” -T “TRACKNUMBER=%n” -T “GENRE=%m” -T “COMMENT=EAC FLAC -8” %s

TOC of the extracted CD

Track | Start | Length | Start sector | End sector
———————————————————
1 | 0:00.00 | 3:33.26 | 0 | 16000
2 | 3:33.26 | 2:34.10 | 16001 | 27560
3 | 6:07.36 | 2:53.24 | 27561 | 40559
4 | 9:00.60 | 3:11.22 | 40560 | 54906
5 | 12:12.07 | 3:35.58 | 54907 | 71089
6 | 15:47.65 | 5:52.20 | 71090 | 97509
7 | 21:40.10 | 3:30.72 | 97510 | 113331
8 | 25:11.07 | 3:20.60 | 113332 | 128391
9 | 28:31.67 | 3:36.74 | 128392 | 144665
10 | 32:08.66 | 3:37.40 | 144666 | 160980
11 | 35:46.31 | 2:54.01 | 160981 | 174031
12 | 38:40.32 | 4:25.22 | 174032 | 193928
13 | 43:05.54 | 4:13.22 | 193929 | 212925
14 | 47:19.01 | 4:03.70 | 212926 | 231220
15 | 51:22.71 | 3:21.24 | 231221 | 246319
16 | 54:44.20 | 3:10.66 | 246320 | 260635
17 | 57:55.11 | 3:19.71 | 260636 | 275631
18 | 61:15.07 | 2:39.11 | 275632 | 287567
19 | 63:54.18 | 5:09.27 | 287568 | 310769
20 | 69:03.45 | 3:29.74 | 310770 | 326518
21 | 72:33.44 | 3:27.70 | 326519 | 342113

Track 1

Filename C:\Documents and Settings\dart.DART-B7964D8A38\Ìîè äîêóìåíòû\Torrents\Ðàçäà÷è\The Cure_Greatest Hits\1\01. The Cure – 10-15 Saturday Night.wav

Pre-gap length 0:00:02.00

Peak level 70.1 %
Track quality 100.0 %
Test CRC D64548E9
Copy CRC D64548E9
Track not present in AccurateRip database
Copy OK

Track 2

Filename C:\Documents and Settings\dart.DART-B7964D8A38\Ìîè äîêóìåíòû\Torrents\Ðàçäà÷è\The Cure_Greatest Hits\1\02. The Cure – Boys Don’t Cry.wav

Peak level 67.0 %
Track quality 100.0 %
Test CRC 7E4B9D3B
Copy CRC 7E4B9D3B
Track not present in AccurateRip database
Copy OK

Track 3

Filename C:\Documents and Settings\dart.DART-B7964D8A38\Ìîè äîêóìåíòû\Torrents\Ðàçäà÷è\The Cure_Greatest Hits\1\03. The Cure – Jumping Someone Else’s Trayn.wav

Peak level 66.9 %
Track quality 99.9 %
Test CRC 9F85C309
Copy CRC 9F85C309
Track not present in AccurateRip database
Copy OK

Track 4

Filename C:\Documents and Settings\dart.DART-B7964D8A38\Ìîè äîêóìåíòû\Torrents\Ðàçäà÷è\The Cure_Greatest Hits\1\04. The Cure – Three Imaginary Boys.wav

Peak level 67.3 %
Track quality 100.0 %
Test CRC F3B69314
Copy CRC F3B69314
Track not present in AccurateRip database
Copy OK

Track 5

Filename C:\Documents and Settings\dart.DART-B7964D8A38\Ìîè äîêóìåíòû\Torrents\Ðàçäà÷è\The Cure_Greatest Hits\1\05. The Cure – Play For Today.wav

Peak level 71.3 %
Track quality 100.0 %
Test CRC D1546291
Copy CRC D1546291
Track not present in AccurateRip database
Copy OK

Track 6

Filename C:\Documents and Settings\dart.DART-B7964D8A38\Ìîè äîêóìåíòû\Torrents\Ðàçäà÷è\The Cure_Greatest Hits\1\06. The Cure – A Forest.wav

Peak level 72.4 %
Track quality 100.0 %
Test CRC 3C7169E2
Copy CRC 3C7169E2
Track not present in AccurateRip database
Copy OK

Track 7

Filename C:\Documents and Settings\dart.DART-B7964D8A38\Ìîè äîêóìåíòû\Torrents\Ðàçäà÷è\The Cure_Greatest Hits\1\07. The Cure – Let’s Go To Bed.wav

Peak level 63.3 %
Track quality 100.0 %
Test CRC 63F3F43C
Copy CRC 63F3F43C
Track not present in AccurateRip database
Copy OK

Track 8

Filename C:\Documents and Settings\dart.DART-B7964D8A38\Ìîè äîêóìåíòû\Torrents\Ðàçäà÷è\The Cure_Greatest Hits\1\08. The Cure – The Walk.wav

Peak level 68.2 %
Track quality 100.0 %
Test CRC 14604E3F
Copy CRC 14604E3F
Track not present in AccurateRip database
Copy OK

Track 9

Filename C:\Documents and Settings\dart.DART-B7964D8A38\Ìîè äîêóìåíòû\Torrents\Ðàçäà÷è\The Cure_Greatest Hits\1\09. The Cure – The Love Cats.wav

Peak level 63.0 %
Track quality 100.0 %
Test CRC F65DA2E5
Copy CRC F65DA2E5
Track not present in AccurateRip database
Copy OK

Track 10

Filename C:\Documents and Settings\dart.DART-B7964D8A38\Ìîè äîêóìåíòû\Torrents\Ðàçäà÷è\The Cure_Greatest Hits\1\10. The Cure – The Caterpillar.wav

Peak level 61.7 %
Track quality 100.0 %
Test CRC 8C2BEE5E
Copy CRC 8C2BEE5E
Track not present in AccurateRip database
Copy OK

Track 11

Filename C:\Documents and Settings\dart.DART-B7964D8A38\Ìîè äîêóìåíòû\Torrents\Ðàçäà÷è\The Cure_Greatest Hits\1\11. The Cure – In Between Days.wav

Peak level 66.9 %
Track quality 99.9 %
Test CRC A330F9F7
Copy CRC A330F9F7
Track not present in AccurateRip database
Copy OK

Track 12

Filename C:\Documents and Settings\dart.DART-B7964D8A38\Ìîè äîêóìåíòû\Torrents\Ðàçäà÷è\The Cure_Greatest Hits\1\12. The Cure – Push.wav

Peak level 67.0 %
Track quality 100.0 %
Test CRC 5F2B42A2
Copy CRC 5F2B42A2
Track not present in AccurateRip database
Copy OK

Track 13

Filename C:\Documents and Settings\dart.DART-B7964D8A38\Ìîè äîêóìåíòû\Torrents\Ðàçäà÷è\The Cure_Greatest Hits\1\13. The Cure – Kyoto Song.wav

Peak level 67.2 %
Track quality 100.0 %
Test CRC DE943BB4
Copy CRC DE943BB4
Track not present in AccurateRip database
Copy OK

Track 14

Filename C:\Documents and Settings\dart.DART-B7964D8A38\Ìîè äîêóìåíòû\Torrents\Ðàçäà÷è\The Cure_Greatest Hits\1\14. The Cure – A Night Like This.wav

Peak level 62.2 %
Track quality 100.0 %
Test CRC 2AB11D14
Copy CRC 2AB11D14
Track not present in AccurateRip database
Copy OK

Track 15

Filename C:\Documents and Settings\dart.DART-B7964D8A38\Ìîè äîêóìåíòû\Torrents\Ðàçäà÷è\The Cure_Greatest Hits\1\15. The Cure – Close To Me.wav

Peak level 64.7 %
Track quality 100.0 %
Test CRC 3A8FC254
Copy CRC 3A8FC254
Track not present in AccurateRip database
Copy OK

Track 16

Filename C:\Documents and Settings\dart.DART-B7964D8A38\Ìîè äîêóìåíòû\Torrents\Ðàçäà÷è\The Cure_Greatest Hits\1\16. The Cure – Why Can’t I Be You.wav

Peak level 61.3 %
Track quality 100.0 %
Test CRC 568DEC35
Copy CRC 568DEC35
Track not present in AccurateRip database
Copy OK

Track 17

Filename C:\Documents and Settings\dart.DART-B7964D8A38\Ìîè äîêóìåíòû\Torrents\Ðàçäà÷è\The Cure_Greatest Hits\1\17. The Cure – A Thousand Hours.wav

Peak level 61.2 %
Track quality 100.0 %
Test CRC B65FFC8A
Copy CRC B65FFC8A
Track not present in AccurateRip database
Copy OK

Track 18

Filename C:\Documents and Settings\dart.DART-B7964D8A38\Ìîè äîêóìåíòû\Torrents\Ðàçäà÷è\The Cure_Greatest Hits\1\18. The Cure – Catch.wav

Peak level 62.2 %
Track quality 100.0 %
Test CRC 94FC9D9D
Copy CRC 94FC9D9D
Track not present in AccurateRip database
Copy OK

Track 19

Filename C:\Documents and Settings\dart.DART-B7964D8A38\Ìîè äîêóìåíòû\Torrents\Ðàçäà÷è\The Cure_Greatest Hits\1\19. The Cure – How Beatiful You Are.wav

Peak level 61.6 %
Track quality 100.0 %
Test CRC 732FDCC7
Copy CRC 732FDCC7
Track not present in AccurateRip database
Copy OK

Track 20

Filename C:\Documents and Settings\dart.DART-B7964D8A38\Ìîè äîêóìåíòû\Torrents\Ðàçäà÷è\The Cure_Greatest Hits\1\20. The Cure – Hot Hot Hot!!!.wav

Peak level 63.3 %
Track quality 100.0 %
Test CRC 4409882E
Copy CRC 4409882E
Track not present in AccurateRip database
Copy OK

Track 21

Filename C:\Documents and Settings\dart.DART-B7964D8A38\Ìîè äîêóìåíòû\Torrents\Ðàçäà÷è\The Cure_Greatest Hits\1\21. The Cure – Just Like Heaven.wav

Peak level 60.6 %
Track quality 100.0 %
Test CRC 9D93587A
Copy CRC 9D93587A
Track not present in AccurateRip database
Copy OK

None of the tracks are present in the AccurateRip database

No errors occurred

End of status report

CD 2:

Exact Audio Copy V0.99 prebeta 5 from 4. May 2009

EAC extraction logfile from 16. May 2010, 10:27

The Cure / Greatest Hits CD 2

Used drive : PIONEER DVDRW DR-KD08HB Adapter: 1 ID: 0

Read mode : Secure
Utilize accurate stream : Yes
Defeat audio cache : Yes
Make use of C2 pointers : No

Read offset correction : 48
Overread into Lead-In and Lead-Out : No
Fill up missing offset samples with silence : Yes
Delete leading and trailing silent blocks : No
Null samples used in CRC calculations : Yes
Used interface : Native Win32 interface for Win NT & 2000
Gap handling : Appended to previous track

Used output format : User Defined Encoder
Selected bitrate : 768 kBit/s
Quality : High
Add ID3 tag : No
Command line compressor : C:\Program Files\Exact Audio Copy\FLAC\FLAC.EXE
Additional command line options : -8 -V -T “ARTIST=%a” -T “TITLE=%t” -T “ALBUM=%g” -T “DATE=%y” -T “TRACKNUMBER=%n” -T “GENRE=%m” -T “COMMENT=EAC FLAC -8” %s

TOC of the extracted CD

Track | Start | Length | Start sector | End sector
———————————————————
1 | 0:00.00 | 7:20.11 | 0 | 33010
2 | 7:20.11 | 3:23.52 | 33011 | 48287
3 | 10:43.63 | 4:06.71 | 48288 | 66808
4 | 14:50.59 | 5:06.19 | 66809 | 89777
5 | 19:57.03 | 4:25.72 | 89778 | 109724
6 | 24:23.00 | 3:29.63 | 109725 | 125462
7 | 27:52.63 | 4:21.44 | 125463 | 145081
8 | 32:14.32 | 3:30.03 | 145082 | 160834
9 | 35:44.35 | 5:08.27 | 160835 | 183961
10 | 40:52.62 | 3:27.05 | 183962 | 199491
11 | 44:19.67 | 5:58.41 | 199492 | 226382
12 | 50:18.33 | 5:02.74 | 226383 | 249106
13 | 55:21.32 | 6:36.51 | 249107 | 278857
14 | 61:58.08 | 4:04.04 | 278858 | 297161
15 | 66:02.12 | 4:09.23 | 297162 | 315859
16 | 70:11.35 | 3:42.28 | 315860 | 332537
17 | 73:53.63 | 3:16.65 | 332538 | 347302

Track 1

Filename C:\Documents and Settings\dart.DART-B7964D8A38\Ìîè äîêóìåíòû\Torrents\Ðàçäà÷è\The Cure_Greatest Hits\2\01. The Cure – Pictures Of You.wav

Pre-gap length 0:00:02.00

Peak level 100.0 %
Track quality 100.0 %
Test CRC 01DFAC02
Copy CRC 01DFAC02
Track not present in AccurateRip database
Copy OK

Track 2

Filename C:\Documents and Settings\dart.DART-B7964D8A38\Ìîè äîêóìåíòû\Torrents\Ðàçäà÷è\The Cure_Greatest Hits\2\02. The Cure – Love Song.wav

Peak level 100.0 %
Track quality 100.0 %
Test CRC 8BEC2D7A
Copy CRC 8BEC2D7A
Track not present in AccurateRip database
Copy OK

Track 3

Filename C:\Documents and Settings\dart.DART-B7964D8A38\Ìîè äîêóìåíòû\Torrents\Ðàçäà÷è\The Cure_Greatest Hits\2\03. The Cure – Lullaby.wav

Peak level 100.0 %
Track quality 100.0 %
Test CRC 71699903
Copy CRC 71699903
Track not present in AccurateRip database
Copy OK

Track 4

Filename C:\Documents and Settings\dart.DART-B7964D8A38\Ìîè äîêóìåíòû\Torrents\Ðàçäà÷è\The Cure_Greatest Hits\2\04. The Cure – Fascination Street.wav

Peak level 100.0 %
Track quality 100.0 %
Test CRC 95501A76
Copy CRC 95501A76
Track not present in AccurateRip database
Copy OK

Track 5

Filename C:\Documents and Settings\dart.DART-B7964D8A38\Ìîè äîêóìåíòû\Torrents\Ðàçäà÷è\The Cure_Greatest Hits\2\05. The Cure – Never Enough.wav

Peak level 72.9 %
Track quality 99.9 %
Test CRC 71D3CC74
Copy CRC 71D3CC74
Track not present in AccurateRip database
Copy OK

Track 6

Filename C:\Documents and Settings\dart.DART-B7964D8A38\Ìîè äîêóìåíòû\Torrents\Ðàçäà÷è\The Cure_Greatest Hits\2\06. The Cure – High.wav

Peak level 100.0 %
Track quality 99.9 %
Test CRC 9A136449
Copy CRC 9A136449
Track not present in AccurateRip database
Copy OK

Track 7

Filename C:\Documents and Settings\dart.DART-B7964D8A38\Ìîè äîêóìåíòû\Torrents\Ðàçäà÷è\The Cure_Greatest Hits\2\07. The Cure – Doing The Unstuck.wav

Peak level 100.0 %
Track quality 100.0 %
Test CRC F052C269
Copy CRC F052C269
Track not present in AccurateRip database
Copy OK

Track 8

Filename C:\Documents and Settings\dart.DART-B7964D8A38\Ìîè äîêóìåíòû\Torrents\Ðàçäà÷è\The Cure_Greatest Hits\2\08. The Cure – Friday I’m In Love.wav

Peak level 100.0 %
Track quality 100.0 %
Test CRC 940871AC
Copy CRC 940871AC
Track not present in AccurateRip database
Copy OK

Track 9

Filename C:\Documents and Settings\dart.DART-B7964D8A38\Ìîè äîêóìåíòû\Torrents\Ðàçäà÷è\The Cure_Greatest Hits\2\09. The Cure – Letter To Elise.wav

Peak level 100.0 %
Track quality 100.0 %
Test CRC E3EE029B
Copy CRC E3EE029B
Track not present in AccurateRip database
Copy OK

Track 10

Filename C:\Documents and Settings\dart.DART-B7964D8A38\Ìîè äîêóìåíòû\Torrents\Ðàçäà÷è\The Cure_Greatest Hits\2\10. The Cure – Mint Car.wav

Peak level 64.1 %
Track quality 100.0 %
Test CRC FDF2BE0B
Copy CRC FDF2BE0B
Track not present in AccurateRip database
Copy OK

Track 11

Filename C:\Documents and Settings\dart.DART-B7964D8A38\Ìîè äîêóìåíòû\Torrents\Ðàçäà÷è\The Cure_Greatest Hits\2\11. The Cure – Wrong Number.wav

Peak level 79.1 %
Track quality 100.0 %
Test CRC C153278F
Copy CRC C153278F
Track not present in AccurateRip database
Copy OK

Track 12

Filename C:\Documents and Settings\dart.DART-B7964D8A38\Ìîè äîêóìåíòû\Torrents\Ðàçäà÷è\The Cure_Greatest Hits\2\12. The Cure – Maybe Someday.wav

Peak level 71.9 %
Track quality 100.0 %
Test CRC 71187581
Copy CRC 71187581
Track not present in AccurateRip database
Copy OK

Track 13

Filename C:\Documents and Settings\dart.DART-B7964D8A38\Ìîè äîêóìåíòû\Torrents\Ðàçäà÷è\The Cure_Greatest Hits\2\13. The Cure – Out Of This World.wav

Peak level 94.8 %
Track quality 100.0 %
Test CRC FFFAF9A1
Copy CRC FFFAF9A1
Track not present in AccurateRip database
Copy OK

Track 14

Filename C:\Documents and Settings\dart.DART-B7964D8A38\Ìîè äîêóìåíòû\Torrents\Ðàçäà÷è\The Cure_Greatest Hits\2\14. The Cure – Signal To Noise.wav

Peak level 66.1 %
Track quality 99.9 %
Test CRC 9C782818
Copy CRC 9C782818
Track not present in AccurateRip database
Copy OK

Track 15

Filename C:\Documents and Settings\dart.DART-B7964D8A38\Ìîè äîêóìåíòû\Torrents\Ðàçäà÷è\The Cure_Greatest Hits\2\15. The Cure – Cut Here.wav

Peak level 65.5 %
Track quality 100.0 %
Test CRC 49CE080D
Copy CRC 49CE080D
Track not present in AccurateRip database
Copy OK

Track 16

Filename C:\Documents and Settings\dart.DART-B7964D8A38\Ìîè äîêóìåíòû\Torrents\Ðàçäà÷è\The Cure_Greatest Hits\2\16. The Cure – The End Of The World.wav

Peak level 65.5 %
Track quality 100.0 %
Test CRC 3000E4DD
Copy CRC 3000E4DD
Track not present in AccurateRip database
Copy OK

Track 17

Filename C:\Documents and Settings\dart.DART-B7964D8A38\Ìîè äîêóìåíòû\Torrents\Ðàçäà÷è\The Cure_Greatest Hits\2\17. The Cure – Taking Off.wav

Peak level 75.6 %
Track quality 100.0 %
Test CRC 07C2562B
Copy CRC 07C2562B
Track not present in AccurateRip database
Copy OK

None of the tracks are present in the AccurateRip database

No errors occurred

End of status report

Cue:

CD 1:

REM DISCID 3311D115
REM COMMENT “ExactAudioCopy v0.99pb5”
PERFORMER “The Cure”
TITLE “Greatest Hits CD 1”
FILE “01. The Cure – 10-15 Saturday Night.wav” WAVE
TRACK 01 AUDIO
TITLE “10-15 Saturday Night “
PERFORMER “The Cure”
FLAGS DCP
INDEX 01 00:00:00
FILE “02. The Cure – Boys Don’t Cry.wav” WAVE
TRACK 02 AUDIO
TITLE “Boys Don’t Cry”
PERFORMER “The Cure”
FLAGS DCP
INDEX 01 00:00:00
FILE “03. The Cure – Jumping Someone Else’s Trayn.wav” WAVE
TRACK 03 AUDIO
TITLE “Jumping Someone Else’s Trayn”
PERFORMER “The Cure”
FLAGS DCP
INDEX 01 00:00:00
FILE “04. The Cure – Three Imaginary Boys.wav” WAVE
TRACK 04 AUDIO
TITLE “Three Imaginary Boys”
PERFORMER “The Cure”
FLAGS DCP
INDEX 01 00:00:00
FILE “05. The Cure – Play For Today.wav” WAVE
TRACK 05 AUDIO
TITLE “Play For Today”
PERFORMER “The Cure”
FLAGS DCP
INDEX 01 00:00:00
FILE “06. The Cure – A Forest.wav” WAVE
TRACK 06 AUDIO
TITLE “A Forest “
PERFORMER “The Cure”
FLAGS DCP
INDEX 01 00:00:00
FILE “07. The Cure – Let’s Go To Bed.wav” WAVE
TRACK 07 AUDIO
TITLE “Let’s Go To Bed “
PERFORMER “The Cure”
FLAGS DCP
INDEX 01 00:00:00
FILE “08. The Cure – The Walk.wav” WAVE
TRACK 08 AUDIO
TITLE “The Walk “
PERFORMER “The Cure”
FLAGS DCP
INDEX 01 00:00:00
FILE “09. The Cure – The Love Cats.wav” WAVE
TRACK 09 AUDIO
TITLE “The Love Cats”
PERFORMER “The Cure”
FLAGS DCP
INDEX 01 00:00:00
FILE “10. The Cure – The Caterpillar.wav” WAVE
TRACK 10 AUDIO
TITLE “The Caterpillar “
PERFORMER “The Cure”
FLAGS DCP
INDEX 01 00:00:00
FILE “11. The Cure – In Between Days.wav” WAVE
TRACK 11 AUDIO
TITLE “In Between Days”
PERFORMER “The Cure”
FLAGS DCP
INDEX 01 00:00:00
FILE “12. The Cure – Push.wav” WAVE
TRACK 12 AUDIO
TITLE “Push “
PERFORMER “The Cure”
FLAGS DCP
INDEX 01 00:00:00
FILE “13. The Cure – Kyoto Song.wav” WAVE
TRACK 13 AUDIO
TITLE “Kyoto Song “
PERFORMER “The Cure”
FLAGS DCP
INDEX 01 00:00:00
FILE “14. The Cure – A Night Like This.wav” WAVE
TRACK 14 AUDIO
TITLE “A Night Like This “
PERFORMER “The Cure”
FLAGS DCP
INDEX 01 00:00:00
FILE “15. The Cure – Close To Me.wav” WAVE
TRACK 15 AUDIO
TITLE “Close To Me “
PERFORMER “The Cure”
FLAGS DCP
INDEX 01 00:00:00
FILE “16. The Cure – Why Can’t I Be You.wav” WAVE
TRACK 16 AUDIO
TITLE “Why Can’t I Be You “
PERFORMER “The Cure”
FLAGS DCP
INDEX 01 00:00:00
FILE “17. The Cure – A Thousand Hours.wav” WAVE
TRACK 17 AUDIO
TITLE “A Thousand Hours “
PERFORMER “The Cure”
FLAGS DCP
INDEX 01 00:00:00
FILE “18. The Cure – Catch.wav” WAVE
TRACK 18 AUDIO
TITLE “Catch “
PERFORMER “The Cure”
FLAGS DCP
INDEX 01 00:00:00
FILE “19. The Cure – How Beatiful You Are.wav” WAVE
TRACK 19 AUDIO
TITLE “How Beatiful You Are”
PERFORMER “The Cure”
FLAGS DCP
INDEX 01 00:00:00
FILE “20. The Cure – Hot Hot Hot!!!.wav” WAVE
TRACK 20 AUDIO
TITLE “Hot Hot Hot!!! “
PERFORMER “The Cure”
FLAGS DCP
INDEX 01 00:00:00
FILE “21. The Cure – Just Like Heaven.wav” WAVE
TRACK 21 AUDIO
TITLE “Just Like Heaven “
PERFORMER “The Cure”
FLAGS DCP
INDEX 01 00:00:00

CD 2:

REM DISCID EE121611
REM COMMENT “ExactAudioCopy v0.99pb5”
PERFORMER “The Cure”
TITLE “Greatest Hits CD 2”
FILE “01. The Cure – Pictures Of You.wav” WAVE
TRACK 01 AUDIO
TITLE “Pictures Of You”
PERFORMER “The Cure”
FLAGS DCP
INDEX 01 00:00:00
FILE “02. The Cure – Love Song.wav” WAVE
TRACK 02 AUDIO
TITLE “Love Song”
PERFORMER “The Cure”
FLAGS DCP
INDEX 01 00:00:00
FILE “03. The Cure – Lullaby.wav” WAVE
TRACK 03 AUDIO
TITLE “Lullaby”
PERFORMER “The Cure”
FLAGS DCP
INDEX 01 00:00:00
FILE “04. The Cure – Fascination Street.wav” WAVE
TRACK 04 AUDIO
TITLE “Fascination Street”
PERFORMER “The Cure”
FLAGS DCP
INDEX 01 00:00:00
FILE “05. The Cure – Never Enough.wav” WAVE
TRACK 05 AUDIO
TITLE “Never Enough”
PERFORMER “The Cure”
FLAGS DCP
INDEX 01 00:00:00
FILE “06. The Cure – High.wav” WAVE
TRACK 06 AUDIO
TITLE “High”
PERFORMER “The Cure”
FLAGS DCP
INDEX 01 00:00:00
FILE “07. The Cure – Doing The Unstuck.wav” WAVE
TRACK 07 AUDIO
TITLE “Doing The Unstuck”
PERFORMER “The Cure”
FLAGS DCP
INDEX 01 00:00:00
FILE “08. The Cure – Friday I’m In Love.wav” WAVE
TRACK 08 AUDIO
TITLE “Friday I’m In Love”
PERFORMER “The Cure”
FLAGS DCP
INDEX 01 00:00:00
FILE “09. The Cure – Letter To Elise.wav” WAVE
TRACK 09 AUDIO
TITLE “Letter To Elise”
PERFORMER “The Cure”
FLAGS DCP
INDEX 01 00:00:00
FILE “10. The Cure – Mint Car.wav” WAVE
TRACK 10 AUDIO
TITLE “Mint Car”
PERFORMER “The Cure”
FLAGS DCP
INDEX 01 00:00:00
FILE “11. The Cure – Wrong Number.wav” WAVE
TRACK 11 AUDIO
TITLE “Wrong Number”
PERFORMER “The Cure”
FLAGS DCP
INDEX 01 00:00:00
FILE “12. The Cure – Maybe Someday.wav” WAVE
TRACK 12 AUDIO
TITLE “Maybe Someday”
PERFORMER “The Cure”
FLAGS DCP
INDEX 01 00:00:00
FILE “13. The Cure – Out Of This World.wav” WAVE
TRACK 13 AUDIO
TITLE “Out Of This World”
PERFORMER “The Cure”
FLAGS DCP
INDEX 01 00:00:00
FILE “14. The Cure – Signal To Noise.wav” WAVE
TRACK 14 AUDIO
TITLE “Signal To Noise”
PERFORMER “The Cure”
FLAGS DCP
INDEX 01 00:00:00
FILE “15. The Cure – Cut Here.wav” WAVE
TRACK 15 AUDIO
TITLE “Cut Here”
PERFORMER “The Cure”
FLAGS DCP
INDEX 01 00:00:00
FILE “16. The Cure – The End Of The World.wav” WAVE
TRACK 16 AUDIO
TITLE “The End Of The World”
PERFORMER “The Cure”
FLAGS DCP
INDEX 01 00:00:00
FILE “17. The Cure – Taking Off.wav” WAVE
TRACK 17 AUDIO
TITLE “Taking Off”
PERFORMER “The Cure”
FLAGS DCP
INDEX 01 00:00:00

Format: FLAC
Bitrate: lossless
Größe: 1,05 GB

Download

Share-Online, Uploaded

http://www.relink.us/f/956c5d4df48afedd73ce67bc0b223c

Nur 1x gepackt, kein Passwort, Mirror kompatibel






Share this