Bikini Model Academy
Genre: | Laufzeit: 84 min Min. | Sprache/n: GER

Zitat:

Einer göttlichen Eingebung beim Kiffen folgend, begründen die frisch von ihren Freundinnen verlassenen Nichtsnutze T.J. und Benji mit Hilfe ihres kaum weniger verantwortungslosen Oheims eine Akademie für Bikini-Modelle. Aus nicht näher erfindlichen Gründen rennen ihnen daraufhin heiße Hasen die Hütte ein, was T.J. und Benji zum Anlass nehmen, sie nach allen Regeln der Kunst zu begaffen und begrabschen. Als jedoch ein konkurrierender Bikiniprofessor und alter Erzfeind der zwei davon erfährt, ist Schluss mit lustig.

Video Stream: BD-RIP | Audio Stream: Stereo | Video Codec: MPEG-4 H.264 / AVC
Hoster: UL, SO | Größe: 1016 MB | Parts: 5 | Passwort: – wird nicht benötigt –

NFO

Code:

General
Unique ID                  : 249239956181227515081088519975730931427 (0xBB81DE9734B58D62BE916DCC8A7BE6E3)
Complete name              : Bikini.Model.Academy.2015.German.BDRip.x264-ROOR\roor-bikini-sd\roor-bikini-sd.mkv
Format                      : Matroska
Format version              : Version 4 / Version 2
File size                  : 998 MiB
Duration                    : 1h 24mn
Overall bit rate            : 1 645 Kbps
Encoded date                : UTC 2015-10-15 18:39:35
Writing application        : mkvmerge v8.3.0 (‘Over the Horizon’) 32bit
Writing library            : libebml v1.3.1 + libmatroska v1.4.2
DURATION                    : 00:15:45.194000000
NUMBER_OF_FRAMES            : 5
NUMBER_OF_BYTES            : 83
_STATISTICS_WRITING_APP    : mkvmerge v8.3.0 (‘Over the Horizon’) 32bit
_STATISTICS_WRITING_DATE_UT : 2015-10-15 18:39:35
_STATISTICS_TAGS            : BPS DURATION NUMBER_OF_FRAMES NUMBER_OF_BYTES

Video
ID                          : 1
Format                      : AVC
Format/Info                : Advanced Video Codec
Format profile              : High@L3.1
Format settings, CABAC      : Yes
Format settings, ReFrames  : 5 frames
Codec ID                    : V_MPEG4/ISO/AVC
Duration                    : 1h 24mn
Bit rate                    : 1 228 Kbps
Width                      : 720 pixels
Height                      : 404 pixels
Display aspect ratio        : 16:9
Frame rate mode            : Constant
Frame rate                  : 23.976 fps
Color space                : YUV
Chroma subsampling          : 4:2:0
Bit depth                  : 8 bits
Scan type                  : Progressive
Bits/(Pixel*Frame)          : 0.176
Stream size                : 745 MiB (75%)
Writing library            : x264 core 148 r2638 7599210
Encoding settings          : cabac=1 / ref=5 / deblock=1:0:0 / analyse=0x3:0x113 / me=umh / subme=7 / psy=1 / psy_rd=1.00:0.00 / mixed_ref=1 / me_range=16 / chroma_me=1 / trellis=1 / 8x8dct=1 / cqm=0 / deadzone=21,11 / fast_pskip=0 / chroma_qp_offset=-2 / threads=12 / lookahead_threads=2 / sliced_threads=0 / nr=0 / decimate=1 / interlaced=0 / bluray_compat=0 / constrained_intra=0 / bframes=3 / b_pyramid=2 / b_adapt=1 / b_bias=0 / direct=1 / weightb=1 / open_gop=0 / weightp=2 / keyint=250 / keyint_min=23 / scenecut=40 / intra_refresh=0 / rc_lookahead=40 / rc=crf / mbtree=1 / crf=19.0 / qcomp=0.60 / qpmin=0 / qpmax=69 / qpstep=4 / ip_ratio=1.40 / aq=1:1.00
Default                    : Yes
Forced                      : No

Audio
ID                          : 2
Format                      : AC-3
Format/Info                : Audio Coding 3
Mode extension              : CM (complete main)
Format settings, Endianness : Big
Codec ID                    : A_AC3
Duration                    : 1h 24mn
Bit rate mode              : Constant
Bit rate                    : 384 Kbps
Channel(s)                  : 6 channels
Channel positions          : Front: L C R, Side: L R, LFE
Sampling rate              : 48.0 KHz
Compression mode            : Lossy
Stream size                : 233 MiB (23%)
Language                    : German
Default                    : Yes
Forced                      : No

Text
ID                          : 3
Format                      : UTF-8
Codec ID                    : S_TEXT/UTF8
Codec ID/Info              : UTF-8 Plain Text
Language                    : German
Default                    : Yes
Forced                      : No

Mirror: 1

Uploaded.net

Mirror: 2

Share-online.biz






Share this