Tracklist:

01. Torching [06:44]
02. The Health [03:12]
03. My Bread [02:15]
04. Aeropuerto [03:19]
05. Accés Rapide [02:15]
06. Steinbeisser [05:09]
07. Mundgucci [04:30]
08. Der Berserker [04:44]
09. F.FWD [03:06]
10. The Fun [04:30]
11. Beauté [03:12]
12. Gigahertz [03:18]
13. Same Size [04:53]

Log:

X Lossless Decoder version 20110821 (136.1)

XLD extraction logfile from 2011-09-23 13:18:08 +0000

Paul Kalkbrenner / Maximalive

Used drive : MATSHITA DVD-R UJ-898 (revision HC10)

Ripper mode : XLD Secure Ripper
Disable audio cache : OK for the drive with a cache less than 1375KiB
Make use of C2 pointers : NO
Read offset correction : 102
Max retry count : 5
Gap status : Analyzed, Appended

TOC of the extracted CD
Track | Start | Length | Start sector | End sector
———————————————————
1 | 00:00:00 | 06:44:62 | 0 | 30361
2 | 06:44:62 | 03:12:43 | 30362 | 44804
3 | 09:57:30 | 02:15:56 | 44805 | 54985
4 | 12:13:11 | 03:19:27 | 54986 | 69937
5 | 15:32:38 | 02:15:67 | 69938 | 80129
6 | 17:48:30 | 05:09:08 | 80130 | 103312
7 | 22:57:38 | 04:30:35 | 103313 | 123597
8 | 27:27:73 | 04:44:35 | 123598 | 144932
9 | 32:12:33 | 03:06:50 | 144933 | 158932
10 | 35:19:08 | 04:30:27 | 158933 | 179209
11 | 39:49:35 | 03:12:24 | 179210 | 193633
12 | 43:01:59 | 03:18:49 | 193634 | 208532
13 | 46:20:33 | 04:53:47 | 208533 | 230554

AccurateRip Summary
Track 01 : OK (confidence 1)
Track 02 : OK (confidence 1)
Track 03 : OK (confidence 1)
Track 04 : OK (confidence 1)
Track 05 : OK (confidence 1)
Track 06 : OK (confidence 1)
Track 07 : OK (confidence 1)
Track 08 : OK (confidence 1)
Track 09 : OK (confidence 1)
Track 10 : OK (confidence 1)
Track 11 : OK (confidence 1)
Track 12 : OK (confidence 1)
Track 13 : OK (confidence 1)
->All tracks accurately ripped.

All Tracks
Album gain : -1.70 dB
Peak : 1.000000
Statistics
Read error : 0
Jitter error (maybe fixed) : 0
Retry sector count : 0
Damaged sector count : 0

Track 01
Filename : /uploads/ Paul Kalkbrenner – Maximalive (2005) FLAC/01 Torching.flac
Pre-gap length : 00:02:00

Track gain : 0.63 dB
Peak : 1.000000
CRC32 hash (test run) : D8AC18D0
CRC32 hash : D8AC18D0
CRC32 hash (skip zero) : 8A8D97D2
AccurateRip signature : E3071E5B
->Accurately ripped! (confidence 1)
Statistics
Read error : 0
Jitter error (maybe fixed) : 0
Retry sector count : 0
Damaged sector count : 0

Track 02
Filename : /uploads/ Paul Kalkbrenner – Maximalive (2005) FLAC/02 The Health.flac

Track gain : -0.29 dB
Peak : 1.000000
CRC32 hash (test run) : 03CB791B
CRC32 hash : 03CB791B
CRC32 hash (skip zero) : 74022BA2
AccurateRip signature : EAD31524
->Accurately ripped! (confidence 1)
Statistics
Read error : 0
Jitter error (maybe fixed) : 0
Retry sector count : 0
Damaged sector count : 0

Track 03
Filename : /uploads/ Paul Kalkbrenner – Maximalive (2005) FLAC/03 My Bread.flac

Track gain : -2.63 dB
Peak : 0.995483
CRC32 hash (test run) : DB1DC7E6
CRC32 hash : DB1DC7E6
CRC32 hash (skip zero) : 0550CAA1
AccurateRip signature : 41DA0615
->Accurately ripped! (confidence 1)
Statistics
Read error : 0
Jitter error (maybe fixed) : 0
Retry sector count : 0
Damaged sector count : 0

Track 04
Filename : /uploads/ Paul Kalkbrenner – Maximalive (2005) FLAC/04 Aeropuerto.flac

Track gain : -2.32 dB
Peak : 1.000000
CRC32 hash (test run) : 91E54AF1
CRC32 hash : 91E54AF1
CRC32 hash (skip zero) : AF7689F3
AccurateRip signature : 113035A6
->Accurately ripped! (confidence 1)
Statistics
Read error : 0
Jitter error (maybe fixed) : 0
Retry sector count : 0
Damaged sector count : 0

Track 05
Filename : /uploads/ Paul Kalkbrenner – Maximalive (2005) FLAC/05 Accés Rapide.flac

Track gain : -2.82 dB
Peak : 1.000000
CRC32 hash (test run) : 7AA2BDDE
CRC32 hash : 7AA2BDDE
CRC32 hash (skip zero) : C3DF8927
AccurateRip signature : 92F22FE4
->Accurately ripped! (confidence 1)
Statistics
Read error : 0
Jitter error (maybe fixed) : 0
Retry sector count : 0
Damaged sector count : 0

Track 06
Filename : /uploads/ Paul Kalkbrenner – Maximalive (2005) FLAC/06 Steinbeisser.flac

Track gain : -0.59 dB
Peak : 1.000000
CRC32 hash (test run) : 34A58582
CRC32 hash : 34A58582
CRC32 hash (skip zero) : 1D91D6C7
AccurateRip signature : 7259C230
->Accurately ripped! (confidence 1)
Statistics
Read error : 0
Jitter error (maybe fixed) : 0
Retry sector count : 0
Damaged sector count : 0

Track 07
Filename : /uploads/ Paul Kalkbrenner – Maximalive (2005) FLAC/07 Mundgucci.flac

Track gain : -1.23 dB
Peak : 1.000000
CRC32 hash (test run) : 62C42872
CRC32 hash : 62C42872
CRC32 hash (skip zero) : 8D894EEF
AccurateRip signature : D319018F
->Accurately ripped! (confidence 1)
Statistics
Read error : 0
Jitter error (maybe fixed) : 0
Retry sector count : 0
Damaged sector count : 0

Track 08
Filename : /uploads/ Paul Kalkbrenner – Maximalive (2005) FLAC/08 Der Berserker.flac

Track gain : -2.28 dB
Peak : 1.000000
CRC32 hash (test run) : 2E6887A1
CRC32 hash : 2E6887A1
CRC32 hash (skip zero) : DABA6EC7
AccurateRip signature : AD185E0B
->Accurately ripped! (confidence 1)
Statistics
Read error : 0
Jitter error (maybe fixed) : 0
Retry sector count : 0
Damaged sector count : 0

Track 09
Filename : /uploads/ Paul Kalkbrenner – Maximalive (2005) FLAC/09 F.FWD.flac

Track gain : -1.01 dB
Peak : 1.000000
CRC32 hash (test run) : 86FB121D
CRC32 hash : 86FB121D
CRC32 hash (skip zero) : A7E3F4BA
AccurateRip signature : 888517BB
->Accurately ripped! (confidence 1)
Statistics
Read error : 0
Jitter error (maybe fixed) : 0
Retry sector count : 0
Damaged sector count : 0

Track 10
Filename : /uploads/ Paul Kalkbrenner – Maximalive (2005) FLAC/10 The Fun.flac

Track gain : 0.00 dB
Peak : 0.999969
CRC32 hash (test run) : 1532CDE9
CRC32 hash : 1532CDE9
CRC32 hash (skip zero) : 91FE6B5C
AccurateRip signature : 5BA7EF24
->Accurately ripped! (confidence 1)
Statistics
Read error : 0
Jitter error (maybe fixed) : 0
Retry sector count : 0
Damaged sector count : 0

Track 11
Filename : /uploads/ Paul Kalkbrenner – Maximalive (2005) FLAC/11 Beauté.flac

Track gain : -1.98 dB
Peak : 1.000000
CRC32 hash (test run) : D48D36CE
CRC32 hash : D48D36CE
CRC32 hash (skip zero) : 27165DD3
AccurateRip signature : BA111AED
->Accurately ripped! (confidence 1)
Statistics
Read error : 0
Jitter error (maybe fixed) : 0
Retry sector count : 0
Damaged sector count : 0

Track 12
Filename : /uploads/ Paul Kalkbrenner – Maximalive (2005) FLAC/12 Gigahertz.flac

Track gain : -2.06 dB
Peak : 1.000000
CRC32 hash (test run) : 8224E3C1
CRC32 hash : 8224E3C1
CRC32 hash (skip zero) : 05B95991
AccurateRip signature : 94F1A84C
->Accurately ripped! (confidence 1)
Statistics
Read error : 0
Jitter error (maybe fixed) : 0
Retry sector count : 0
Damaged sector count : 0

Track 13
Filename : /uploads/ Paul Kalkbrenner – Maximalive (2005) FLAC/13 Same Size.flac

Track gain : -2.48 dB
Peak : 1.000000
CRC32 hash (test run) : 2945B497
CRC32 hash : 2945B497
CRC32 hash (skip zero) : BB2179ED
AccurateRip signature : 14A06950
->Accurately ripped! (confidence 1)
Statistics
Read error : 0
Jitter error (maybe fixed) : 0
Retry sector count : 0
Damaged sector count : 0

No errors occurred

End of status report

Cue:

TITLE “Maximalive”
PERFORMER ” Paul Kalkbrenner”
REM GENRE “Techno”
REM DATE “2005”
REM DISCNUMBER 1
REM TOTALDISCS 1
REM DISCID BD0C020D
REM REPLAYGAIN_ALBUM_GAIN -1.70 dB
REM REPLAYGAIN_ALBUM_PEAK 1.000000
FILE “01 Torching.flac” WAVE
TRACK 01 AUDIO
TITLE “Torching”
REM REPLAYGAIN_TRACK_GAIN 0.63 dB
REM REPLAYGAIN_TRACK_PEAK 1.000000
INDEX 01 00:00:00
FILE “02 The Health.flac” WAVE
TRACK 02 AUDIO
TITLE “The Health”
REM REPLAYGAIN_TRACK_GAIN -0.29 dB
REM REPLAYGAIN_TRACK_PEAK 1.000000
INDEX 01 00:00:00
FILE “03 My Bread.flac” WAVE
TRACK 03 AUDIO
TITLE “My Bread”
REM REPLAYGAIN_TRACK_GAIN -2.63 dB
REM REPLAYGAIN_TRACK_PEAK 0.995483
INDEX 01 00:00:00
FILE “04 Aeropuerto.flac” WAVE
TRACK 04 AUDIO
TITLE “Aeropuerto”
REM REPLAYGAIN_TRACK_GAIN -2.32 dB
REM REPLAYGAIN_TRACK_PEAK 1.000000
INDEX 01 00:00:00
FILE “05 Accés Rapide.flac” WAVE
TRACK 05 AUDIO
TITLE “Accés Rapide”
REM REPLAYGAIN_TRACK_GAIN -2.82 dB
REM REPLAYGAIN_TRACK_PEAK 1.000000
INDEX 01 00:00:00
FILE “06 Steinbeisser.flac” WAVE
TRACK 06 AUDIO
TITLE “Steinbeisser”
REM REPLAYGAIN_TRACK_GAIN -0.59 dB
REM REPLAYGAIN_TRACK_PEAK 1.000000
INDEX 01 00:00:00
FILE “07 Mundgucci.flac” WAVE
TRACK 07 AUDIO
TITLE “Mundgucci”
REM REPLAYGAIN_TRACK_GAIN -1.23 dB
REM REPLAYGAIN_TRACK_PEAK 1.000000
INDEX 01 00:00:00
FILE “08 Der Berserker.flac” WAVE
TRACK 08 AUDIO
TITLE “Der Berserker”
REM REPLAYGAIN_TRACK_GAIN -2.28 dB
REM REPLAYGAIN_TRACK_PEAK 1.000000
INDEX 01 00:00:00
FILE “09 F.FWD.flac” WAVE
TRACK 09 AUDIO
TITLE “F.FWD”
REM REPLAYGAIN_TRACK_GAIN -1.01 dB
REM REPLAYGAIN_TRACK_PEAK 1.000000
INDEX 01 00:00:00
FILE “10 The Fun.flac” WAVE
TRACK 10 AUDIO
TITLE “The Fun”
REM REPLAYGAIN_TRACK_GAIN 0.00 dB
REM REPLAYGAIN_TRACK_PEAK 0.999969
INDEX 01 00:00:00
FILE “11 Beauté.flac” WAVE
TRACK 11 AUDIO
TITLE “Beauté”
REM REPLAYGAIN_TRACK_GAIN -1.98 dB
REM REPLAYGAIN_TRACK_PEAK 1.000000
INDEX 01 00:00:00
FILE “12 Gigahertz.flac” WAVE
TRACK 12 AUDIO
TITLE “Gigahertz”
REM REPLAYGAIN_TRACK_GAIN -2.06 dB
REM REPLAYGAIN_TRACK_PEAK 1.000000
INDEX 01 00:00:00
FILE “13 Same Size.flac” WAVE
TRACK 13 AUDIO
TITLE “Same Size”
REM REPLAYGAIN_TRACK_GAIN -2.48 dB
REM REPLAYGAIN_TRACK_PEAK 1.000000
INDEX 01 00:00:00

Format: FLAC
Bitrate: lossless
Größe: 259 MB

Download

Share-Online, Uploaded

http://www.relink.us/f/eef7c1cac2e71df6699fa2cff4a901

Nur 1x gepackt, kein Passwort, Mirror kompatibel






Share this