Codename.U.N.C.L.E.2015.German.AC3LD.BDRiP.x264-XDD

Anfang der 1960er-Jahre, auf dem Höhepunkt des Kalten Krieges, sehen sich ClA-Agent Solo und KGB-Agent Kuryakin gezwungen, ihre jahrelangen Feindseligkeiten zu überwinden, um gemeinsam gegen ein geheimnisvolles internationales Verbrechersyndikat vorzugehen, das durch die massive Produktion von Atomwaffen das empfindliche Gleichgewicht der Supermächte zu destabilisieren droht. Die Agenten haben zunächst nur einen Anhaltspunkt: die Tochter eines verschwundenen deutschen Wissenschaftlers – denn nur er kann ihnen helfen, sich in das Syndikat einzuschleusen. Die Suche nach dem Verschollenen erweist sich als Wettlauf gegen die Zeit, denn die globale Katastrophe steht unmittelbar bevor.

Genre: Action
Laufzeit: 112 Min.
Sprache/n: Deutsch
Video Stream: BDRiP
Audio Stream: Line
Video Codec: MPEG-4 H.264 / AVC
Format: MKV
Größe: 1410 MB
Parts: 2

NFO

Code:

Video: AVC, 720×304, 23.976 fps, 1510 Kbps
Audio: AC-3, 48.0 KHz, 2 channels, 224 Kbps

MEDIAINFO

Code:

General
Unique ID                                : 234047154731272954861002399066467756861 (0xB013D7A5880B9CB4B36EB84FD42E6B3D)
Complete name                            : xdd-unc-c0d-brd-x264-l1ne/xdd-unc-c0d-brd-x264-l1ne.mkv
Format                                  : Matroska
Format version                          : Version 2
File size                                : 1.41 GiB
Duration                                : 01:56:31
Overall bit rate                        : 1 735 Kbps
Encoded date                            : UTC 2015-11-06 18:36:50
Writing application                      : mkvmerge v6.1.0 (‘Old Devil’) built on Mar  4 2013 09:10:42
Writing library                          : libebml v1.3.0 + libmatroska v1.4.0

Video
ID                                      : 1
Format                                  : AVC
Format/Info                              : Advanced Video Codec
Format profile                          : High@L4.1
Format settings, CABAC                  : Yes
Format settings, ReFrames                : 8 frames
Codec ID                                : V_MPEG4/ISO/AVC
Duration                                : 01:56:31
Bit rate                                : 1 510 Kbps
Width                                    : 720 pixels
Height                                  : 304 pixels
Display aspect ratio                    : 2.35:1
Frame rate mode                          : Constant
Frame rate                              : 23.976 fps
Color space                              : YUV
Chroma subsampling                      : 4:2:0
Bit depth                                : 8 bits
Scan type                                : Progressive
Bits/(Pixel*Frame)                      : 0.288
Stream size                              : 1.20 GiB (85%)
Writing library                          : x264 core 130 r2273 b3065e6
Encoding settings                        : cabac=1 / ref=8 / deblock=1:-1:-1 / analyse=0x3:0x133 / me=umh / subme=7 / psy=1 / psy_rd=1.00:0.10 / mixed_ref=1 / me_range=16 / chroma_me=1 / trellis=2 / 8x8dct=1 / cqm=0 / deadzone=21,11 / fast_pskip=0 / chroma_qp_offset=-3 / threads=12 / lookahead_threads=2 / sliced_threads=0 / nr=0 / decimate=1 / interlaced=0 / bluray_compat=0 / constrained_intra=0 / bframes=3 / b_pyramid=2 / b_adapt=2 / b_bias=0 / direct=3 / weightb=1 / open_gop=0 / weightp=2 / keyint=250 / keyint_min=23 / scenecut=40 / intra_refresh=0 / rc_lookahead=50 / rc=2pass / mbtree=1 / bitrate=1510 / ratetol=1.0 / qcomp=0.60 / qpmin=0 / qpmax=69 / qpstep=4 / cplxblur=20.0 / qblur=0.5 / ip_ratio=1.40 / aq=1:1.00
Default                                  : Yes
Forced                                  : No

Audio
ID                                      : 2
Format                                  : AC-3
Format/Info                              : Audio Coding 3
Mode extension                          : CM (complete main)
Format settings, Endianness              : Big
Codec ID                                : A_AC3
Duration                                : 01:56:31
Bit rate mode                            : Constant
Bit rate                                : 224 Kbps
Channel(s)                              : 2 channels
Channel positions                        : Front: L R
Sampling rate                            : 48.0 KHz
Bit depth                                : 16 bits
Compression mode                        : Lossy
Stream size                              : 187 MiB (13%)
Default                                  : Yes
Forced                                  : No

SAMPLE


Uploaded.net


Share-online.biz






Share this