Heist 2015 WEB-DL x264-RARBG

A father is without the means to pay for his daughter’s medical treatment. As a last resort, he partners with a greedy co-worker to rob a casino. When things go awry they’re forced to hijack a city bus.

http://www.imdb.com/title/tt3276924/

Size: 798MB
Genre: Action, Thriller
Audio: English
Subs: English
IMDB Rating: 7.8/10 from 70 users
RT Critics: 4.4/10
Directed By: Scott Mann
Starring: Dave Bautista, Jeffrey Dean Morgan, Robert De Niro

NFO

Video
ID : 1
Format : AVC
Format/Info : Advanced Video Codec
Format profile : High@L3.1
Format settings, CABAC : Yes
Format settings, ReFrames : 5 frames
Codec ID : avc1
Codec ID/Info : Advanced Video Coding
Duration : 1h 32mn
Bit rate : 1 100 Kbps
Width : 720 pixels
Height : 304 pixels
Display aspect ratio : 2.40:1
Original display aspect ratio : 2.40:1
Frame rate mode : Constant
Frame rate : 23.976 fps
Color space : YUV
Chroma subsampling : 4:2:0
Bit depth : 8 bits
Scan type : Progressive
Bits/(Pixel*Frame) : 0.210
Stream size : 710 MiB (89%)
Title : Heist.2015.WEB-DL.x264-RARBG
Writing library : x264 core 146 r2555 0c21480
Encoding settings : cabac=1 / ref=5 / deblock=1:-2:-2 / analyse=0x3:0x113 / me=umh / subme=8 / psy=1 / psy_rd=0.90:0.00 / mixed_ref=1 / me_range=16 / chroma_me=1 / trellis=1 / 8x8dct=1 / cqm=0 / deadzone=21,11 / fast_pskip=1 / chroma_qp_offset=-2 / threads=8 / lookahead_threads=2 / sliced_threads=0 / nr=0 / decimate=1 / interlaced=0 / bluray_compat=0 / constrained_intra=0 / bframes=3 / b_pyramid=2 / b_adapt=2 / b_bias=0 / direct=3 / weightb=1 / open_gop=0 / weightp=2 / keyint=250 / keyint_min=25 / scenecut=40 / intra_refresh=0 / rc_lookahead=50 / rc=abr / mbtree=1 / bitrate=1100 / ratetol=1.0 / qcomp=0.60 / qpmin=0 / qpmax=69 / qpstep=4 / vbv_maxrate=31250 / vbv_bufsize=31250 / nal_hrd=none / filler=0 / ip_ratio=1.40 / aq=1:1.00
Language : English

Audio
ID : 2
Format : AAC
Format/Info : Advanced Audio Codec
Format profile : LC
Codec ID : 40
Duration : 1h 32mn
Duration_LastFrame : 43ms
Bit rate mode : Variable
Bit rate : 128 Kbps
Maximum bit rate : 31.3 Mbps
Channel(s) : 2 channels
Channel(s)_Original : 6 channels
Channel positions : Front: L C R, Side: L R, LFE
Sampling rate : 48.0 KHz
Compression mode : Lossy
Stream size : 84.8 MiB (11%)
Title : Heist.2015.WEB-DL.x264-RARBG
Language : English

Menu #1
ID : 3
Codec ID : text
Duration : 1h 32mn
Language : English
00:00:00.000 : 1
00:02:51.043 : 2
00:12:43.043 : 3
00:23:18.043 : 4
00:34:36.043 : 5
00:44:47.043 : 6
00:55:00.043 : 7
01:05:01.043 : 8
01:15:31.043 : 9
01:27:10.043 : 10
Bit rate mode : VBR

Menu #2
00:00:00.043 : 1
00:02:51.043 : 2
00:12:43.043 : 3
00:23:18.043 : 4
00:34:36.043 : 5
00:44:47.043 : 6
00:55:00.043 : 7
01:05:01.043 : 8
01:15:31.043 : 9
01:27:10.043 : 10

HOSTER:

UPLOADED

DOWNLOAD

http://share-links.biz/_tqpfsxnk7luj…-DL_x264-RARBG






Share this