The Big Bang Theory
Staffel 5 komplett

Zitat:

Leonard Hofstadter (Johnny Galecki) und Sheldon Cooper (Jim Parsons) sind geniale Physiker, doch im sozialen Kontakt mit der „normalen“ Umwelt hat insbesondere Sheldon so seine Probleme. Gemeinsam bewohnen sie eine WG, in der auch ihre besten Freunde Howard (Simon Helberg) und Raj (Kunal Nayyar) ein- und ausgehen. Nachbarin Penny (Kaley Cuoco) kann mit den merkwürdigen Nerds und ihren Spleens zunächst wenig anfangen, doch bald wächst ihr die Gruppe ans Herz.

Nicht verwunderlich ist indes, dass sich Leonard in Penny verliebt – doch wäre es denkbar, dass sich eine hübsche Blondine ausgerechnet für einen melancholischen Intelligenzbolzen entscheiden würde? Sheldon sind solche Gedanken fremd – viel wichtiger ist dem Pedanten, dass niemand auf seinem Platz auf der Couch sitzt. Raj bringt kein Wort heraus, wenn eine Frau in der Nähe ist. Und Howard? Der wohnt noch im Hotel Mama – kein charmantes Hotel. „Bazinga!“

IMDB | Wiki
Hoster: Ul.to, Share-Online.biz
Größe: ~ 200 MB/Folge
Laufzeit: ~ 21 min/Folge
Sprache: Deutsch & Englisch
Untertitel: Deutsch

Info

Code:

General
Unique ID                  : 116222620686906947357884173268540124747 (0x576FA99C3219DFF2236BEFD6A98EEE4B)
Complete name              : tmsf-bigbang-s05e01-480p.mkv
Format                      : Matroska
Format version              : Version 2
File size                  : 208 MiB
Duration                    : 21mn 30s
Overall bit rate            : 1 353 Kbps
Movie name                  : The.Big.Bang.Theory.S05E01.Der.Schlampen.Reflex.German.DL.BDRip.x264.iNTERNAL-TMSF
Encoded date                : UTC 2013-09-01 13:18:57
Writing application        : mkvmerge v5.0.1 (‘Es ist Sommer’) built on Oct 13 2011 06:24:21
Writing library            : libebml v1.2.2 + libmatroska v1.3.0

Video
ID                          : 1
Format                      : AVC
Format/Info                : Advanced Video Codec
Format profile              : High@L3.1
Format settings, CABAC      : Yes
Format settings, ReFrames  : 5 frames
Codec ID                    : V_MPEG4/ISO/AVC
Duration                    : 21mn 30s
Bit rate                    : 942 Kbps
Width                      : 720 pixels
Height                      : 404 pixels
Display aspect ratio        : 16:9
Frame rate mode            : Constant
Frame rate                  : 23.976 fps
Color space                : YUV
Chroma subsampling          : 4:2:0
Bit depth                  : 8 bits
Scan type                  : Progressive
Bits/(Pixel*Frame)          : 0.135
Stream size                : 145 MiB (70%)
Title                      : tmsf-bigbang-s05e01-480p
Writing library            : x264 core 133 r2334 a3ac64b
Encoding settings          : cabac=1 / ref=5 / deblock=1:-2:-2 / analyse=0x3:0x113 / me=umh / subme=8 / psy=1 / psy_rd=1.00:0.00 / mixed_ref=1 / me_range=16 / chroma_me=1 / trellis=1 / 8x8dct=1 / cqm=0 / deadzone=21,11 / fast_pskip=1 / chroma_qp_offset=-2 / threads=9 / lookahead_threads=1 / sliced_threads=0 / nr=0 / decimate=1 / interlaced=0 / bluray_compat=0 / constrained_intra=0 / bframes=3 / b_pyramid=2 / b_adapt=2 / b_bias=0 / direct=3 / weightb=1 / open_gop=0 / weightp=2 / keyint=250 / keyint_min=23 / scenecut=40 / intra_refresh=0 / rc_lookahead=50 / rc=crf / mbtree=1 / crf=19.0 / qcomp=0.60 / qpmin=0 / qpmax=69 / qpstep=4 / ip_ratio=1.40 / aq=1:1.00
Language                    : German
Default                    : Yes
Forced                      : Yes
Color range                : Limited
Matrix coefficients        : BT.709

Audio #1
ID                          : 2
Format                      : AC-3
Format/Info                : Audio Coding 3
Format profile              : Dolby Digital
Mode extension              : CM (complete main)
Format settings, Endianness : Big
Codec ID                    : A_AC3
Duration                    : 21mn 30s
Bit rate mode              : Constant
Bit rate                    : 192 Kbps
Channel(s)                  : 2 channels
Channel positions          : Front: L R
Sampling rate              : 48.0 KHz
Compression mode            : Lossy
Stream size                : 29.5 MiB (14%)
Language                    : German
Default                    : Yes
Forced                      : Yes

Audio #2
ID                          : 3
Format                      : AC-3
Format/Info                : Audio Coding 3
Mode extension              : CM (complete main)
Format settings, Endianness : Big
Codec ID                    : A_AC3
Duration                    : 21mn 30s
Bit rate mode              : Constant
Bit rate                    : 192 Kbps
Channel(s)                  : 2 channels
Channel positions          : Front: L R
Sampling rate              : 48.0 KHz
Compression mode            : Lossy
Stream size                : 29.5 MiB (14%)
Language                    : English
Default                    : No
Forced                      : No

The.Big.Bang.Theory.S05.German.DL.BDRip.x264.iNTER NAL-TMSF

weitere Staffeln:
Staffel 1: 480p | 720p | 1080p
Staffel 2: 480p | 720p | 1080p
Staffel 3: 480p | 720p | 1080p
Staffel 4: 480p | 720p | 1080p
Staffel 5: 480p | 720p | 1080p
Staffel 6: 480p | 720p | 1080p
Staffel 7: 480p | 720p | 1080p
Staffel 8: 480p | 720p | 1080p






Share this