Fantastic Four 2015 BDRip AC3 German XviD-LoC

Beschreibung:

Johnny Storm (Michael B. Jordan), seine Schwester Sue (Kate Mara), Reed Richards (Miles Teller) und Ben Grimm (Jamie Bell) sind vier Freunde, die einen Forschungsunfall mit einschneidenden Veränderungen erleben: Nachdem Tüftler und Genie Reed die Grundlagen für das entsprechende Verfahren entwickelt hat, werden die Vier in ein Paralleluniversum teleportiert und verfügen danach über Superkräfte. Storm wird zur menschlichen Fackel, Sue kann unsichtbar werden, Reed seine Gliedmaßen gummiartig verlängern und Grimm verwandelt sich in den klobigen Steinkoloss „Das Ding“. Doch die neuen Fähigkeiten sind keine harmlose Spielerei, sie wecken das Interesse des Militärs – und das des sinisteren Forschers Dr. Victor von Doom (Toby Kebbell), der ausgerechnet in Johnnys und Sues Vater Dr. Franklin Storm (Reg E. Cathey) einen Mentor fand…

Reboot der “Fantastic Four”-Kinoreihe, basierend auf den Marvel-Comics.

Info:

Sprache(n) : Deutsch

Genre : Action/Fantasy

Dauer : 100min.

Audioformat : Dolby Digital 5.1 @ 448kbps

Videoformat : BD/XviD

Parts : 10

Größe : 1430MB

Notes : –

Code:

Originalname………: Fantastic Four (2015)
Audio Format………: AC3
Bitrate…………..: 448kbps
Hz……………….: 48000
Channels………….: DD 5.1
Video Format………: XviD/.avi
Video Bitrate……..: 2043k
Resolution………..: 720×304
FPS………………: 24
Genre…………….: Action/Fantasy
Dauer…………….: 100min.
IMDb Rating……….: 4.3
Movie Information….: http://www.imdb.com/title/tt1502712/
Posted by…………: LoC
Posted on…………: 10.12.2015
Videosource……….: Bluray (Thx!!)
Audiosource……….: –
Notes…………….: –
 
Johnny Storm (Michael B. Jordan), seine Schwester Sue (Kate Mara), Reed Richards (Miles Teller) und Ben Grimm (Jamie Bell) sind vier Freunde, die einen Forschungsunfall mit einschneidenden Verõnderungen erleben: Nachdem T³ftler und Genie Reed die Grundlagen f³r das entsprechende Verfahren entwickelt hat, werden die Vier in ein Paralleluniversum teleportiert und verf³gen danach ³ber Superkrõfte. Storm wird zur menschlichen Fackel, Sue kann unsichtbar werden, Reed seine Gliedma▀en gummiartig verlõngern und Grimm verwandelt sich in den klobigen Steinkoloss äDas Dingô. Doch die neuen Fõhigkeiten sind keine harmlose Spielerei, sie wecken das Interesse des Militõrs û und das des sinisteren Forschers Dr. Victor von Doom (Toby Kebbell), der ausgerechnet in Johnnys und Sues Vater Dr. Franklin Storm (Reg E. Cathey) einen Mentor fandà

Reboot der “Fantastic Four”-Kinoreihe, basierend auf den Marvel-Comics.

Mediainfo :

Code:

General
Complete name                            : Fantastic.Four.2015.BDRip.AC3.German.XviD-LoC\LoC-fantastic four.avi
Format                                  : AVI
Format/Info                              : Audio Video Interleave
Format profile                          : OpenDML
File size                                : 1.43 GiB
Duration                                : 1h 40mn
Overall bit rate                        : 2 043 Kbps
Writing application                      : Lavf51.12.1

Video
ID                                      : 0
Format                                  : xvid
Codec ID                                : xvid
Duration                                : 1h 40mn
Bit rate                                : 1 583 Kbps
Width                                    : 720 pixels
Height                                  : 304 pixels
Display aspect ratio                    : 2.35:1
Frame rate                              : 24.000 fps
Bits/(Pixel*Frame)                      : 0.301
Stream size                              : 1.11 GiB (77%)

Audio
ID                                      : 1
Format                                  : AC-3
Format/Info                              : Audio Coding 3
Mode extension                          : CM (complete main)
Format settings, Endianness              : Big
Codec ID                                : 2000
Duration                                : 1h 40mn
Bit rate mode                            : Constant
Bit rate                                : 448 Kbps
Channel(s)                              : 6 channels
Channel positions                        : Front: L C R, Side: L R, LFE
Sampling rate                            : 48.0 KHz
Frame rate                              : 31.250 fps (1536 spf)
Bit depth                                : 16 bits
Compression mode                        : Lossy
Stream size                              : 322 MiB (22%)
Alignment                                : Aligned on interleaves
Interleave, duration                    : 32 ms (0.77 video frame)
Interleave, preload duration            : 32 ms

Passwort: Kein Passwort

Download:

Share-Links.biz

Share-Links.biz

Ein DANKE wäre nett & hält den Beitrag für jeden sichtbar






Share this