Japanese title: Kanokon
Length per Episode: 25 min
Anime type: TV Series
Air date: 05 April 2008

Summary [AniDB]: * Based on a light novel series by [Nishino Katsumi], with illustrations by [Koin]. [Oyamada Kouta], a young first-year high school student moves from the country to the city and transfers to Kunpou High School. On his first day at his new school, a second-year female student named [Minamoto Chizuru] asks him to meet her alone in the music room. When he arrives, she tries to seduce him — and reveals that she is a fox deity. When Kouta keeps this a secret, she decides that he is her destined partner. From that day on, she never leaves his side, nor will she skip a chance to practice anything ecchi with him — whether he likes it or not. But then a first-year female student by the name of [Ezomori Nozomu] arrives at Kouta`s school, who, incidentally, also falls in love with Kouta. Kouta becomes much more involved in the world of deities, especially after Nozomu reveals that she is also a deity…

Detected quality: 720p
Original run: 05 April 2008 — 21 June 2008
Episodes count: 12
AniDB rating: 3.7 (3,463 votes)
Director: Ootsuki Atsushi
Studio: Xebec
Language: English
Genres: Earth, Japan, Novel, Comedy, Romance, Coming Of Age, Present, Asia, Seinen, Love Polygon, High School, Ecchi, Sudden Girlfriend Appearance, Boing, Juujin, Sexual Abuse, Large Breasts, Countryside, Borderline Hentai

NFO:

Code:

Plot:

Kanokon’s story revolves around Kouta Oyamada, a young first-year high school student who moves from the country to the city and thus transfers to Kunpo High School. On his first day at his new school, a beautiful second-year female student named Chizuru Minamoto asks him to meet her alone in the music room. When he arrives, she reveals her that she is in fact a fox deity and from that day on the two hang out together. Nozomu is a first year female student at Kouta’s school, she is in fact a wolf deity and in love with Kouta, and a rival of Chizuru for Kouta’s affections.
Source:webDL
Format : MPEG-4
Format profile : Base Media
Codec ID : isom (isom/avc1/iso6)
File size : 252 MiB
Duration : 25mn 16s
Overall bit rate mode : Variable
Overall bit rate : 1 393 Kbps
Encoded date : UTC 2015-12-13 21:18:45
Tagged date : UTC 2015-12-13 21:18:45

Video
ID : 1
Format : AVC
Format/Info : Advanced Video Codec
Format profile : High@L4.1
Format settings, CABAC : Yes
Format settings, ReFrames : 4 frames
Codec ID : avc1
Codec ID/Info : Advanced Video Coding
Duration : 25mn 15s
Bit rate : 1 126 Kbps
Maximum bit rate : 10.7 Mbps
Width : 1 280 pixels
Height : 720 pixels
Display aspect ratio : 16:9
Frame rate mode : Constant
Frame rate : 23.976 (24000/1001) fps
Color space : YUV
Chroma subsampling : 4:2:0
Bit depth : 8 bits
Scan type : Progressive
Bits/(Pixel*Frame) : 0.051
Stream size : 202 MiB (80%)
Writing library : x264 core 148 r2597 e86f3a1
Encoding settings : cabac=1 / ref=3 / deblock=1:0:0 / analyse=0x3:0x113 / me=hex / subme=7 / psy=1 / psy_rd=1.00:0.00 / mixed_ref=1 / me_range=16 / chroma_me=1 / trellis=1 / 8x8dct=1 / cqm=0 / deadzone=21,11 / fast_pskip=1 / chroma_qp_offset=-2 / threads=12 / lookahead_threads=2 / sliced_threads=0 / nr=0 / decimate=1 / interlaced=0 / bluray_compat=0 / constrained_intra=0 / bframes=3 / b_pyramid=2 / b_adapt=1 / b_bias=0 / direct=1 / weightb=1 / open_gop=0 / weightp=2 / keyint=250 / keyint_min=23 / scenecut=40 / intra_refresh=0 / rc_lookahead=40 / rc=abr / mbtree=1 / bitrate=1126 / ratetol=1.0 / qcomp=0.60 / qpmin=0 / qpmax=69 / qpstep=4 / ip_ratio=1.40 / aq=1:1.00
Encoded date : UTC 2015-12-13 21:18:45
Tagged date : UTC 2015-12-13 21:18:51

Audio
ID : 2
Format : AAC
Format/Info : Advanced Audio Codec
Format profile : LC
Codec ID : 40
Duration : 25mn 16s
Bit rate mode : Variable
Bit rate : 271 Kbps
Maximum bit rate : 418 Kbps
Channel(s) : 2 channels
Channel positions : Front: L R
Sampling rate : 44.1 KHz
Frame rate : 43.066 fps (1024 spf)
Compression mode : Lossy
Stream size : 48.9 MiB (19%)
Encoded date : UTC 2015-12-13 21:10:13
Tagged date : UTC 2015-12-13 21:18:51

Content:

Code:

Kanokon The Girl Who Cried Fox (Complete)(English Dubbed) 720p XcripX (Size: 2.8 GB)
                  Kanokon The Girl Who Cried Fox – S01E09 – Can You Feel It-thumb.jpg        12.84 KB
                  Kanokon The Girl Who Cried Fox – S01E09 – Can You Feel It.mp4        237.66 MB
                  Kanokon The Girl Who Cried Fox – S01E09 – Can You Feel It.nfo        1.76 KB
                  Kanokon The Girl Who Cried Fox – S01E08 – Should We Enter Together.nfo        1.92 KB
                  Kanokon The Girl Who Cried Fox – S01E08 – Should We Enter Together.mp4        237.04 MB
                  Kanokon The Girl Who Cried Fox – S01E07 – Won’t You Warm Me Up.mp4        236.39 MB
                  Kanokon The Girl Who Cried Fox – S01E07 – Won’t You Warm Me Up.nfo        1.99 KB
                  Kanokon The Girl Who Cried Fox – S01E08 – Should We Enter Together-thumb.jpg        15.92 KB
                  Kanokon The Girl Who Cried Fox – S01E10 – Shall I Show Restraint-thumb.jpg        19.52 KB
                  Kanokon The Girl Who Cried Fox – S01E10 – Shall I Show Restraint.mp4        250.86 MB
                  Kanokon The Girl Who Cried Fox – S01E12 – Can We Finally Do It-thumb.jpg        13.72 KB
                  Kanokon The Girl Who Cried Fox – S01E12 – Can We Finally Do It.mp4        234.16 MB
                  Kanokon The Girl Who Cried Fox – S01E12 – Can We Finally Do It.nfo        1.92 KB
                  Kanokon The Girl Who Cried Fox – S01E11 – I’m Getting Wet Already.nfo        2.11 KB
                  Kanokon The Girl Who Cried Fox – S01E11 – I’m Getting Wet Already.mp4        235.7 MB
                  Kanokon The Girl Who Cried Fox – S01E10 – Shall I Show Restraint.nfo        2.05 KB
                  Kanokon The Girl Who Cried Fox – S01E11 – I’m Getting Wet Already-thumb.jpg        22.65 KB
                  Kanokon The Girl Who Cried Fox – S01E07 – Won’t You Warm Me Up-thumb.jpg        14.86 KB
                  Kanokon The Girl Who Cried Fox – S01E06 – Can I Please Do It.nfo        1.91 KB
                  Kanokon The Girl Who Cried Fox – S01E02 – Are We Becoming One.nfo        1.82 KB
                  Kanokon The Girl Who Cried Fox – S01E03 – Eat Deliciously-thumb.jpg        19.91 KB
                  Kanokon The Girl Who Cried Fox – S01E03 – Eat Deliciously.mp4        235.34 MB
                  Kanokon The Girl Who Cried Fox – S01E02 – Are We Becoming One.mp4        236.97 MB
                  Kanokon The Girl Who Cried Fox – S01E02 – Are We Becoming One-thumb.jpg        20.84 KB
                  Kanokon The Girl Who Cried Fox – S01E01 – Doing it for the First Time.mp4        251.74 MB
                  Kanokon The Girl Who Cried Fox – S01E01 – Doing it for the First Time.nfo        2.18 KB
                  Kanokon The Girl Who Cried Fox – S01E03 – Eat Deliciously.nfo        2.18 KB
                  Kanokon The Girl Who Cried Fox – S01E04 – Can’t Take it Off-thumb.jpg        22.57 KB
                  Kanokon The Girl Who Cried Fox – S01E05 – Became No Good.nfo        2.09 KB
                  Kanokon The Girl Who Cried Fox – S01E06 – Can I Please Do It-thumb.jpg        16.5 KB
                  Kanokon The Girl Who Cried Fox – S01E06 – Can I Please Do It.mp4        235.8 MB
                  Kanokon The Girl Who Cried Fox – S01E05 – Became No Good.mp4        236.75 MB
                  Kanokon The Girl Who Cried Fox – S01E05 – Became No Good-thumb.jpg        20.88 KB
                  Kanokon The Girl Who Cried Fox – S01E04 – Can’t Take it Off.mp4        235.9 MB
                  Kanokon The Girl Who Cried Fox – S01E04 – Can’t Take it Off.nfo        1.9 KB
                  Kanokon The Girl Who Cried Fox – S01E01 – Doing it for the First Time-thumb.jpg        16.59 KB

Hoster: Share-Online.biz
Size: 2.8 GB
Password: Kanokon

Download:

Code:

http://s2l.biz/8afldzn8my0






Share this