Japanese title: Machine-Doll wa Kizutsukanai
Episode length: 25 min
Anime type: TV Series
Air date: 07 October 2013

Summary [AniDB]: During the early 20th century, along with technological advancements, scientists were able to develop sophisticated magic. The combination of science and sorcery was called Machinart: circuits made from spells that were put into objects to bring them to life and even gain a personality. It was developed as a military weapon and has spread throughout the world. [Akabane Raishin] is now attending the Walpurgis Royal Academy of Machinart in Mechanical City to become the best puppeteer in the world. Accompanied by the lovely teenage girl [Yaya], who is actually Raishin`s puppet weapon, he plans on rocketing to the top of the class. However, his test scores come in nearly dead last, 1,235th of 1,236 to be exact, although his combat skills and determination are second to none. Raishin has to compete with the deadliest of classmates if he wants to come out on top. Source: Moetron Note: The first episode was pre-aired at a special event on 15.09.2013, regular TV broadcast started on 07.10.2013.

Detected quality: x265
Original run: 15 September 2013 — 23 December 2013
Episodes count: 12
AniDB rating: 4.9 (1,304 votes)
Director: Yoshimoto Kinji
Studio: Lerche
Languages: English , Japanese
Subtitles: English
Genres: Earth, Novel, Magic, Romance, Fantasy, Action, Mecha, Seinen, Sci Fi, United Kingdom, Europe, Nudity, Spellcasting, Proxy Battles, Android, Steampunk, Sci-Fi

NFO:

Code:

Constant Quality encoding.
Variable Bit rates
ED and OP included
All 6 OVAs
Blu-Ray Source

General

Format : Matroska
File size : 150 MiB-200 MiB
Duration : 23mn 41s
Overall bit rate : 884 Kbps-1,182 Kbps
Encoded date : UTC 2015-11-03 13:30:41
Writing application : mkvmerge v7.7.0 (‘Six Voices’) 32bit built on Feb 28 2015 23:23:00
Writing library : libebml v1.3.1 + libmatroska v1.4.2

Video
ID : 1
Format : V_MPEGH/ISO/HEVC
Codec ID : V_MPEGH/ISO/HEVC
Duration : 23mn 41s
Bit rate : 482 Kbps-775 Kbps
Width : 1 280 pixels
Height : 720 pixels
Display aspect ratio : 16:9
Frame rate : 23.976 fps
Bits/(Pixel*Frame) : 0.022
Stream size : 81.7 MiB (55%)

Audio #1
ID : 2
Format : AC-3
Format/Info : Audio Coding 3
Mode extension : CM (complete main)
Codec ID : A_AC3
Duration : 23mn 41s
Bit rate mode : Constant
Bit rate : 192 Kbps
Channel(s) : 6 channels
Channel positions : Front: L C R, Side: L R, LFE
Sampling rate : 48.0 KHz
Bit depth : 16 bits
Compression mode : Lossy
Stream size : 32.5 MiB (22%)
Language : English

Audio #2
ID : 3
Format : AC-3
Format/Info : Audio Coding 3
Mode extension : CM (complete main)
Codec ID : A_AC3
Duration : 23mn 41s
Bit rate mode : Constant
Bit rate : 192 Kbps
Channel(s) : 2 channels
Channel positions : Front: L R
Sampling rate : 48.0 KHz
Bit depth : 16 bits
Compression mode : Lossy
Stream size : 32.5 MiB (22%)
Language : Japanese

Text #1
ID : 4
Format : ASS
Codec ID : S_TEXT/ASS
Codec ID/Info : Advanced Sub Station Alpha
Compression mode : Lossless
Title : English Signs/Songs
Language : English

Text #2
ID : 5
Format : ASS
Codec ID : S_TEXT/ASS
Codec ID/Info : Advanced Sub Station Alpha
Compression mode : Lossless
Title : English Subtitles
Language : English

Menu
00:00:00.000 : en:Prologue
00:01:08.986 : en:Part A
00:09:48.046 : en:Part B
00:22:04.990 : en:Ending

Content:

Code:

[ShepardTDS] Unbreakable Machine Doll Dual Audio Uncensored [720p 8-bit x265 HEVC] 1-12+OVAs… (Size: 2.5 GB)
                  Unbreakable Machine-Doll 01 Cannibal Candy I.mkv        200.33 MB
                  Unbreakable Machine-Doll 02 Cannibal Candy II.mkv        192.14 MB
                  Unbreakable Machine-Doll 03 Cannibal Candy III.mkv        193.29 MB
                  Unbreakable Machine-Doll 04 Cannibal Candy IV.mkv        199.49 MB
                  Unbreakable Machine-Doll 05 Sword Angel I.mkv        196.27 MB
                  Unbreakable Machine-Doll 06 Sword Angel II.mkv        188.58 MB
                  Unbreakable Machine-Doll 07 Sword Angel III.mkv        149.77 MB
                  Unbreakable Machine-Doll 08 Sword Angel IV.mkv        190.99 MB
                  Unbreakable Machine-Doll 09 Elf Speeder I.mkv        190.71 MB
                  Unbreakable Machine-Doll 10 Elf Speeder II.mkv        179.61 MB
                  Unbreakable Machine-Doll 11 Elf Speeder III.mkv        173.18 MB
                  Unbreakable Machine-Doll 12 Elf Speeder IV.mkv        153.49 MB
          Bonus
                  Unbreakable Machine-Doll NCED 02.mkv        30.56 MB       
                  Unbreakable Machine-Doll NCED 03.mkv        30.53 MB       
                  Unbreakable Machine-Doll NCED 04.mkv        18.46 MB       
                  Unbreakable Machine-Doll NCOP.mkv        21.57 MB       
                  Unbreakable Machine-Doll Vol. I.mkv        40.35 MB       
                  Unbreakable Machine-Doll Vol. II.mkv        30.68 MB       
                  Unbreakable Machine-Doll Vol. III.mkv        35.48 MB       
                  Unbreakable Machine-Doll Vol. IV.mkv        33.79 MB       
                  Unbreakable Machine-Doll Vol. V.mkv        31.91 MB       
                  Unbreakable Machine-Doll Vol. VI.mkv        44.85 MB       
                  Unbreakable Machine-Doll NCED 01.mkv        30.19 MB

Hoster: Share-Online.biz
Size: 2.5 GB
Password: machine doll

Download:

Code:

http://s2l.biz/vvsr3zn7y9e







Share this