Circus Halligalli Spezial: Das Duell um die Geld
Staffel 1, Episode 2 (21. Dezember 2015) – 720p

Zitat:

Ein weiteres “Circus HalliGalli”-Special von Joko und Klaas wird am 21. Dezember dem Abend Spannung verleihen: “Das Duell um die Geld” wird zum zweiten Mal ausgetragen. Das witzige Spiel dreht sich um schnöden Mammon – viel wissen müssen die Kandidaten nicht unbedingt.

| Größe: 1,34 GB | Dauer: 1:36 Stunden | Sprache: deutsch | Hoster: ul |

1280x720p / ProSieben HD (ohne Werbung)
Video: x264 720p
Audio: AC3

MediaInfo

Code:

General
Unique ID                                : 328011732048913724467890968184755153875 (0xF6C4C2FDE02008B73ED5FECF976D6BD3)
Complete name                            : S01E02_DUDG_720p.mkv
Format                                  : Matroska
Format version                          : Version 4 / Version 2
File size                                : 1.34 GiB
Duration                                : 1h 35mn
Overall bit rate                        : 2 005 Kbps
Writing application                      : Lavf56.25.101
Writing library                          : Lavf56.25.101

Video
ID                                      : 1
Format                                  : AVC
Format/Info                              : Advanced Video Codec
Format profile                          : High@L3.1
Format settings, CABAC                  : Yes
Format settings, ReFrames                : 4 frames
Codec ID                                : V_MPEG4/ISO/AVC
Duration                                : 1h 35mn
Bit rate                                : 1 581 Kbps
Width                                    : 1 280 pixels
Height                                  : 720 pixels
Display aspect ratio                    : 16:9
Frame rate mode                          : Constant
Frame rate                              : 25.000 fps
Color space                              : YUV
Chroma subsampling                      : 4:2:0
Bit depth                                : 8 bits
Scan type                                : Progressive
Bits/(Pixel*Frame)                      : 0.069
Stream size                              : 1.06 GiB (79%)
Writing library                          : x264 core 146
Encoding settings                        : cabac=1 / ref=3 / deblock=1:0:0 / analyse=0x3:0x113 / me=hex / subme=7 / psy=1 / psy_rd=1.00:0.00 / mixed_ref=1 / me_range=16 / chroma_me=1 / trellis=1 / 8x8dct=1 / cqm=0 / deadzone=21,11 / fast_pskip=1 / chroma_qp_offset=-2 / threads=12 / lookahead_threads=2 / sliced_threads=0 / nr=0 / decimate=1 / interlaced=0 / bluray_compat=0 / constrained_intra=0 / bframes=3 / b_pyramid=2 / b_adapt=1 / b_bias=0 / direct=1 / weightb=1 / open_gop=0 / weightp=2 / keyint=250 / keyint_min=25 / scenecut=40 / intra_refresh=0 / rc_lookahead=40 / rc=crf / mbtree=1 / crf=23.0 / qcomp=0.60 / qpmin=0 / qpmax=69 / qpstep=4 / ip_ratio=1.40 / aq=1:1.00
Default                                  : No
Forced                                  : No

Audio
ID                                      : 2
Format                                  : AC-3
Format/Info                              : Audio Coding 3
Mode extension                          : CM (complete main)
Format settings, Endianness              : Big
Codec ID                                : A_AC3
Duration                                : 1h 35mn
Bit rate mode                            : Constant
Bit rate                                : 384 Kbps
Channel(s)                              : 2 channels
Channel positions                        : Front: L R
Sampling rate                            : 48.0 KHz
Bit depth                                : 16 bits
Compression mode                        : Lossy
Stream size                              : 263 MiB (19%)
Language                                : German
Default                                  : Yes
Forced                                  : No

Passwort: LoaDay
Parts: 6 (~ 250MB pro Part)


Download






Share this