The Victorias Secret Fashion Show 2006 HDTV MPEG2 1080i – P2P

MPEG2, 1920×1080,16:9, 17.7 Mbps, 29.97 fps
AC3, 384 Kbps, 48 KHz, 2ch

General
ID : 1 (0x1)
Complete name : E:\Victoria’s.Secret.Fashion.Show.03.05-11.HDTV.MPEG2.1080i\The.Victoria’s.Secret.Fashion. Show.2006.HDTV.MPEG2.1080i.DD2.0\The.Victoria’s.Se cret.Fashion.Show.2006.HDTV.MPEG2.1080i.DD2.0.ts
Format : MPEG-TS
File size : 5.66 GiB
Duration : 42mn 42s
Overall bit rate mode : Variable
Overall bit rate : 19.0 Mbps
Maximum Overall bit rate : 35.5 Mbps
Video
ID : 4113 (0x1011)
Menu ID : 1 (0x1)
Format : MPEG Video
Format version : Version 2
Format profile : Main@High
Format settings, BVOP : Yes
Format settings, Matrix : Custom
Codec ID : 2
Duration : 42mn 42s
Bit rate mode : Variable
Bit rate : 17.7 Mbps
Maximum bit rate : 65.0 Mbps
Width : 1 920 pixels
Height : 1 080 pixels
Display aspect ratio : 16:9
Frame rate : 29.970 fps
Color space : YUV
Chroma subsampling : 4:2:0
Bit depth : 8 bits
Scan type : Interlaced
Scan order : Bottom Field First
Compression mode : Lossy
Bits/(Pixel*Frame) : 0.284
Stream size : 5.27 GiB (93%)
Audio
ID : 4352 (0x1100)
Menu ID : 1 (0x1)
Format : AC-3
Format/Info : Audio Coding 3
Mode extension : CM (complete main)
Codec ID : 129
Duration : 42mn 42s
Bit rate mode : Constant
Bit rate : 384 Kbps
Channel(s) : 2 channels
Channel positions : Front: L R
Sampling rate : 48.0 KHz
Bit depth : 16 bits
Compression mode : Lossy
Stream size : 117 MiB (2%)
Text #1
ID : 4113 (0x1011)-608-1
Menu ID : 1 (0x1)
Format : EIA-608
Muxing mode : A/53 / DTVCC Transport
Muxing mode, more info : Muxed in Video #1
Duration : 42mn 42s
Bit rate mode : Constant
Stream size : 0.00 Byte (0%)
Text #2
ID : 4113 (0x1011)-608-2
Menu ID : 1 (0x1)
Format : EIA-608
Muxing mode : A/53 / DTVCC Transport
Muxing mode, more info : Muxed in Video #1
Duration : 42mn 42s
Bit rate mode : Constant
Stream size : 0.00 Byte (0%)
Text #3
ID : 4113 (0x1011)-1
Menu ID : 1 (0x1)
Format : EIA-708
Muxing mode : A/53 / DTVCC Transport
Muxing mode, more info : Muxed in Video #1
Duration : 42mn 42s
Bit rate mode : Constant
Stream size : 0.00 Byte (0%)

HOSTER:

UPLOADED
SHARE-ONLINE

DOWNLOAD

http://s2l.biz/g8f06zn1aux






Share this