The Victorias Secret Fashion Show 2008 HDTV MPEG2 1080i DD2.0 – P2P

MPEG2, 1920×1080,16:9, 16.1 Mbps, 29.97 fps
AC3, 384 Kbps, 48 KHz, 6 ch

General
ID : 1 (0x1)
Complete name : E:\Victoria’s.Secret.Fashion.Show.03.05-11.HDTV.MPEG2.1080i\The.Victoria’s.Secret.Fashion. Show.2008.HDTV.MPEG2.1080i.DD5.1\The.Victoria’s.Se cret.Fashion.Show.2008.HDTV.MPEG2.1080i.DD5.1.ts
Format : MPEG-TS
File size : 5.10 GiB
Duration : 42mn 8s
Overall bit rate mode : Variable
Overall bit rate : 17.3 Mbps
Video
ID : 1984 (0x7C0)
Menu ID : 1 (0x1)
Format : MPEG Video
Format version : Version 2
Format profile : Main@High
Format settings, BVOP : Yes
Format settings, Matrix : Custom
Codec ID : 2
Duration : 42mn 8s
Bit rate mode : Variable
Bit rate : 16.1 Mbps
Maximum bit rate : 17.1 Mbps
Width : 1 920 pixels
Height : 1 080 pixels
Display aspect ratio : 16:9
Frame rate : 29.970 fps
Standard : Component
Color space : YUV
Chroma subsampling : 4:2:0
Bit depth : 8 bits
Compression mode : Lossy
Bits/(Pixel*Frame) : 0.259
Stream size : 4.73 GiB (93%)
Color primaries : BT.709
Transfer characteristics : BT.709
Matrix coefficients : BT.709
Audio
ID : 1985 (0x7C1)
Menu ID : 1 (0x1)
Format : AC-3
Format/Info : Audio Coding 3
Mode extension : CM (complete main)
Codec ID : 129
Duration : 42mn 8s
Bit rate mode : Constant
Bit rate : 384 Kbps
Channel(s) : 6 channels
Channel positions : Front: L C R, Side: L R, LFE
Sampling rate : 48.0 KHz
Bit depth : 16 bits
Compression mode : Lossy
Stream size : 116 MiB (2%)
Text #1
ID : 1984 (0x7C0)-608-1
Menu ID : 1 (0x1)
Format : EIA-608
Muxing mode : A/53 / DTVCC Transport
Muxing mode, more info : Muxed in Video #1
Duration : 42mn 8s
Bit rate mode : Constant
Stream size : 0.00 Byte (0%)
Text #2
ID : 1984 (0x7C0)-1
Menu ID : 1 (0x1)
Format : EIA-708
Muxing mode : A/53 / DTVCC Transport
Muxing mode, more info : Muxed in Video #1
Duration : 42mn 8s
Bit rate mode : Constant
Stream size : 0.00 Byte (0%)

HOSTER:

UPLOADED
SHARE-ONLINE

DOWNLOAD

http://s2l.biz/9z216znsnhe71






Share this